<?xml version="1.0" standalone="no"?>
<!DOCTYPE svg PUBLIC "-//W3C//DTD SVG 1.1//EN" "http://www.w3.org/Graphics/SVG/1.1/DTD/svg11.dtd" >
<svg xmlns="http://www.w3.org/2000/svg" xmlns:xlink="http://www.w3.org/1999/xlink" version="1.1">
<metadata>
Created by FontForge 20170731 at Mon Sep 27 10:42:09 2021
 By Aleksey,,,
Copyright 2020 The Open Sans Project Authors (https://github.com/googlefonts/opensans)
</metadata>
<defs>
<font id="OpenSans-Medium" horiz-adv-x="0" >
  <font-face 
    font-family="Open Sans Medium"
    font-weight="500"
    font-stretch="normal"
    units-per-em="2048"
    panose-1="0 0 0 0 0 0 0 0 0 0"
    ascent="1638"
    descent="-410"
    x-height="1102"
    cap-height="1462"
    bbox="-1160 -568 2520 2149"
    underline-thickness="50"
    underline-position="-175"
    unicode-range="U+000D-FFFD"
  />
<missing-glyph horiz-adv-x="1229" 
 />
    <glyph glyph-name="f_f" unicode="ff" horiz-adv-x="1430" 
d="M692 947h-271v-947h-201v947h-187v97l187 61v76q0 139 43 223.5t123.5 123.5t195.5 39q69 0 126.5 -12t99.5 -27l-52 -154q-34 11 -76 20.5t-89 9.5q-87 0 -128.5 -56t-41.5 -169v-77h271v-155zM1407 947h-271v-947h-201v947h-187v97l187 61v76q0 139 43 223.5
t123.5 123.5t195.5 39q69 0 126.5 -12t99.5 -27l-52 -154q-34 11 -76 20.5t-89 9.5q-87 0 -128.5 -56t-41.5 -169v-77h271v-155z" />
    <glyph glyph-name="fi" unicode="fi" horiz-adv-x="1259" 
d="M692 947h-271v-947h-201v947h-187v97l187 61v76q0 139 43 223.5t123.5 123.5t195.5 39q69 0 126.5 -12t99.5 -27l-52 -154q-34 11 -76 20.5t-89 9.5q-87 0 -128.5 -56t-41.5 -169v-77h271v-155zM1087 1102v-1102h-201v1102h201zM988 1519q48 0 82.5 -28t34.5 -91
t-34.5 -91.5t-82.5 -28.5q-49 0 -82.5 28.5t-33.5 91.5t33.5 91t82.5 28z" />
    <glyph glyph-name="fl" unicode="fl" horiz-adv-x="1259" 
d="M692 947h-271v-947h-201v947h-187v97l187 61v76q0 139 43 223.5t123.5 123.5t195.5 39q69 0 126.5 -12t99.5 -27l-52 -154q-34 11 -76 20.5t-89 9.5q-87 0 -128.5 -56t-41.5 -169v-77h271v-155zM1088 0h-202v1556h202v-1556z" />
    <glyph glyph-name="f_f_i" unicode="ffi" horiz-adv-x="1973" 
d="M692 947h-271v-947h-201v947h-187v97l187 61v76q0 139 43 223.5t123.5 123.5t195.5 39q69 0 126.5 -12t99.5 -27l-52 -154q-34 11 -76 20.5t-89 9.5q-87 0 -128.5 -56t-41.5 -169v-77h271v-155zM1407 947h-271v-947h-201v947h-187v97l187 61v76q0 139 43 223.5
t123.5 123.5t195.5 39q69 0 126.5 -12t99.5 -27l-52 -154q-34 11 -76 20.5t-89 9.5q-87 0 -128.5 -56t-41.5 -169v-77h271v-155zM1802 1102v-1102h-201v1102h201zM1703 1519q48 0 82.5 -28t34.5 -91t-34.5 -91.5t-82.5 -28.5q-49 0 -82.5 28.5t-33.5 91.5t33.5 91t82.5 28z
" />
    <glyph glyph-name="f_f_l" unicode="ffl" horiz-adv-x="1973" 
d="M692 947h-271v-947h-201v947h-187v97l187 61v76q0 139 43 223.5t123.5 123.5t195.5 39q69 0 126.5 -12t99.5 -27l-52 -154q-34 11 -76 20.5t-89 9.5q-87 0 -128.5 -56t-41.5 -169v-77h271v-155zM1407 947h-271v-947h-201v947h-187v97l187 61v76q0 139 43 223.5
t123.5 123.5t195.5 39q69 0 126.5 -12t99.5 -27l-52 -154q-34 11 -76 20.5t-89 9.5q-87 0 -128.5 -56t-41.5 -169v-77h271v-155zM1803 0h-202v1556h202v-1556z" />
    <glyph glyph-name=".notdef" horiz-adv-x="1229" 
 />
    <glyph glyph-name=".null" 
 />
    <glyph glyph-name="nonmarkingreturn" horiz-adv-x="682" 
 />
    <glyph glyph-name="NULL" 
 />
    <glyph glyph-name="NULL" 
 />
    <glyph glyph-name="CR" unicode="&#xd;" horiz-adv-x="532" 
 />
    <glyph glyph-name="space" unicode=" " horiz-adv-x="532" 
 />
    <glyph glyph-name="exclam" unicode="!" horiz-adv-x="552" 
d="M348 426h-143l-47 1036h237zM142 114q0 76 38.5 107.5t94.5 31.5q55 0 94 -31.5t39 -107.5q0 -74 -39 -108t-94 -34q-56 0 -94.5 34t-38.5 108z" />
    <glyph glyph-name="quotedbl" unicode="&#x22;" horiz-adv-x="854" 
d="M339 1462l-38 -528h-128l-38 528h204zM719 1462l-38 -528h-128l-38 528h204z" />
    <glyph glyph-name="numbersign" unicode="#" horiz-adv-x="1323" 
d="M985 885l-61 -313h277v-146h-305l-83 -426h-156l83 426h-277l-81 -426h-153l77 426h-256v146h285l62 313h-272v146h298l82 431h157l-81 -431h280l81 431h153l-82 -431h259v-146h-287zM490 572h278l61 313h-277z" />
    <glyph glyph-name="dollar" unicode="$" horiz-adv-x="1171" 
d="M518 -119v208q-119 2 -223.5 21t-175.5 51v187q73 -34 183.5 -60.5t215.5 -29.5v407q-138 44 -226.5 94t-131.5 119.5t-43 168.5q0 102 50 175t140.5 115t210.5 49v168h126v-165q109 -4 200 -25t172 -55l-63 -163q-71 29 -151 48t-158 25v-401q128 -40 221 -85t143 -112
t50 -174q0 -147 -107 -239.5t-307 -111.5v-215h-126zM644 266q110 12 163.5 55t53.5 114q0 49 -21.5 81.5t-69 57t-126.5 47.5v-355zM518 863v352q-66 -5 -111.5 -25.5t-68.5 -53.5t-23 -79q0 -51 20 -86t65 -60.5t118 -47.5z" />
    <glyph glyph-name="percent" unicode="%" horiz-adv-x="1731" 
d="M401 1483q156 0 236.5 -119.5t80.5 -337.5t-77.5 -339.5t-239.5 -121.5q-150 0 -229.5 121.5t-79.5 339.5t75.5 337.5t233.5 119.5zM402 1342q-73 0 -107.5 -79t-34.5 -237q0 -159 34.5 -239t107.5 -80q75 0 111.5 80t36.5 239q0 157 -36 236.5t-112 79.5zM1355 1462
l-811 -1462h-169l811 1462h169zM1323 898q154 0 235 -120t81 -337t-77.5 -338.5t-238.5 -121.5q-151 0 -230 121.5t-79 338.5t75 337t234 120zM1323 755q-73 0 -107 -78.5t-34 -236.5t34 -238t107 -80q75 0 112 79t37 239q0 158 -36.5 236.5t-112.5 78.5z" />
    <glyph glyph-name="ampersand" unicode="&#x26;" horiz-adv-x="1503" 
d="M626 1485q111 0 192.5 -37.5t127 -108t45.5 -169.5q0 -133 -84.5 -224.5t-212.5 -165.5l375 -364q52 65 85.5 147.5t57.5 176.5h205q-32 -128 -84.5 -244t-132.5 -207l295 -289h-263l-165 161q-62 -54 -134 -95t-158.5 -63.5t-193.5 -22.5q-147 0 -254 47.5t-165 137.5
t-58 218q0 106 37 181.5t106 134t165 112.5q-48 54 -87.5 107.5t-62.5 113t-23 130.5q0 101 48 173t134.5 111t204.5 39zM532 686q-68 -41 -117 -81.5t-74.5 -90.5t-25.5 -119q0 -110 75.5 -175.5t199.5 -65.5q118 0 204 38t148 93zM621 1323q-81 0 -135 -42t-54 -124
q0 -69 37.5 -129t104.5 -131q116 64 169.5 124t53.5 141q0 74 -49.5 117.5t-126.5 43.5z" />
    <glyph glyph-name="quotesingle" unicode="'" horiz-adv-x="473" 
d="M339 1462l-38 -528h-128l-38 528h204z" />
    <glyph glyph-name="parenleft" unicode="(" horiz-adv-x="627" 
d="M82 561q0 169 32.5 328.5t99.5 305t169 267.5h182q-144 -190 -217 -422t-73 -477q0 -159 32.5 -315t97 -300t158.5 -272h-180q-102 120 -169 262t-99.5 299.5t-32.5 323.5z" />
    <glyph glyph-name="parenright" unicode=")" horiz-adv-x="627" 
d="M545 563q0 -167 -32.5 -325t-99 -300.5t-169.5 -261.5h-180q95 127 159 272t96.5 300.5t32.5 315.5q0 163 -33 321t-97 304t-160 273h182q103 -123 169.5 -268t99 -304.5t32.5 -326.5z" />
    <glyph glyph-name="asterisk" unicode="*" horiz-adv-x="1125" 
d="M660 1556l-38 -390l389 113l28 -195l-369 -35l239 -318l-178 -97l-175 345l-159 -344l-185 96l237 318l-366 36l30 194l383 -113l-39 390h203z" />
    <glyph glyph-name="plus" unicode="+" horiz-adv-x="1171" 
d="M663 800h405v-156h-405v-415h-158v415h-406v156h406v417h158v-417z" />
    <glyph glyph-name="comma" unicode="," horiz-adv-x="544" 
d="M385 238l13 -23q-18 -73 -45.5 -156t-60.5 -166t-66 -157h-148q21 80 40.5 169t36 175t26.5 158h204z" />
    <glyph glyph-name="hyphen" unicode="-" horiz-adv-x="659" 
d="M77 463v174h506v-174h-506z" />
    <glyph glyph-name="period" unicode="." horiz-adv-x="550" 
d="M142 114q0 76 38.5 107.5t93.5 31.5q56 0 95 -31.5t39 -107.5q0 -74 -39 -108t-95 -34q-55 0 -93.5 34t-38.5 108z" />
    <glyph glyph-name="slash" unicode="/" horiz-adv-x="775" 
d="M756 1462l-544 -1462h-193l545 1462h192z" />
    <glyph glyph-name="zero" unicode="0" horiz-adv-x="1171" 
d="M1074 733q0 -178 -27 -318t-85.5 -237t-152 -147.5t-225.5 -50.5q-166 0 -274 89t-161 257.5t-53 406.5q0 234 48 402.5t155.5 259t284.5 90.5q168 0 276.5 -89.5t161 -258t52.5 -404.5zM298 733q0 -195 28 -325t91 -194.5t167 -64.5t167.5 64t91.5 194t28 326
q0 192 -28 321.5t-90.5 195t-168.5 65.5t-168.5 -65.5t-90 -195t-27.5 -321.5z" />
    <glyph glyph-name="one" unicode="1" horiz-adv-x="1171" 
d="M751 0h-199v989q0 53 0.5 97.5t2.5 85t4 78.5q-26 -27 -54.5 -51.5t-65.5 -55.5l-167 -135l-103 132l415 322h167v-1462z" />
    <glyph glyph-name="two" unicode="2" horiz-adv-x="1171" 
d="M1070 0h-974v158l385 391q110 111 182.5 194.5t109.5 162t37 171.5q0 114 -67 174t-178 60q-100 0 -180.5 -36.5t-166.5 -104.5l-108 134q59 50 128 90.5t151 64.5t182 24q137 0 236.5 -48t153.5 -136t54 -206q0 -117 -46.5 -216.5t-131.5 -197.5t-201 -209l-285 -282v-9
h719v-179z" />
    <glyph glyph-name="three" unicode="3" horiz-adv-x="1171" 
d="M1016 1125q0 -99 -39 -171.5t-108 -118.5t-160 -65v-7q174 -22 262.5 -111t88.5 -235q0 -127 -60 -226t-184.5 -155t-319.5 -56q-117 0 -217 19t-190 61v183q91 -46 197 -71.5t204 -25.5q191 0 274.5 74t83.5 204q0 86 -45 140.5t-133.5 80.5t-220.5 26h-137v166h139
q123 0 202.5 32.5t118.5 91.5t39 138q0 103 -67.5 159.5t-190.5 56.5q-76 0 -138.5 -16.5t-116 -43.5t-103.5 -61l-99 139q81 62 196.5 106t264.5 44q225 0 342 -99t117 -259z" />
    <glyph glyph-name="four" unicode="4" horiz-adv-x="1171" 
d="M1133 330h-208v-330h-197v330h-686v159l682 979h201v-965h208v-173zM728 503v420q0 50 1 95.5t3 86.5t4 76.5t3 64.5h-8q-19 -40 -42.5 -83t-49.5 -80l-405 -580h494z" />
    <glyph glyph-name="five" unicode="5" horiz-adv-x="1171" 
d="M576 904q145 0 253.5 -50.5t169 -147.5t60.5 -236q0 -152 -65 -262t-189 -169t-300 -59q-114 0 -213 20t-168 60v185q74 -43 178.5 -69.5t201.5 -26.5q106 0 184.5 33t121.5 100t43 170q0 136 -85 210t-267 74q-61 0 -132 -10.5t-117 -21.5l-94 57l56 701h744v-179h-570
l-34 -403q37 8 92 16t130 8z" />
    <glyph glyph-name="six" unicode="6" horiz-adv-x="1171" 
d="M105 624q0 131 18.5 256t63 234t122.5 191.5t195 129.5t282 47q44 0 97.5 -4t88.5 -14v-169q-38 12 -85 18t-94 6q-185 0 -290 -75.5t-150 -205t-52 -292.5h11q30 49 77 89t113.5 63.5t155.5 23.5q128 0 223 -52.5t147 -152.5t52 -243q0 -152 -57 -263t-162.5 -171
t-251.5 -60q-108 0 -200 40.5t-160 121t-106 201t-38 281.5zM606 147q125 0 200.5 80.5t75.5 245.5q0 135 -67 213.5t-202 78.5q-92 0 -160.5 -39t-106 -97.5t-37.5 -119.5q0 -63 18 -126.5t55 -117t93 -86t131 -32.5z" />
    <glyph glyph-name="seven" unicode="7" horiz-adv-x="1171" 
d="M274 0l588 1283h-778v179h993v-144l-585 -1318h-218z" />
    <glyph glyph-name="eight" unicode="8" horiz-adv-x="1171" 
d="M585 1483q126 0 226.5 -40t158 -117.5t57.5 -192.5q0 -88 -37.5 -154.5t-101 -116t-141.5 -88.5q90 -42 164 -96t118 -127t44 -173q0 -122 -60.5 -211.5t-169.5 -138t-255 -48.5q-158 0 -268 46.5t-167.5 134t-57.5 210.5q0 101 42 175.5t111 128t151 91.5
q-71 40 -129.5 91t-93 119.5t-34.5 158.5q0 112 58.5 189.5t159.5 118t225 40.5zM289 375q0 -104 73.5 -171t221.5 -67q142 0 218.5 66.5t76.5 175.5q0 69 -36.5 121t-101 93.5t-148.5 75.5l-34 13q-85 -36 -145 -79.5t-92.5 -99t-32.5 -128.5zM583 1324q-108 0 -176.5 -52
t-68.5 -149q0 -70 33.5 -118.5t90.5 -84t128 -65.5q68 30 122.5 65.5t86 85t31.5 117.5q0 98 -68.5 149.5t-178.5 51.5z" />
    <glyph glyph-name="nine" unicode="9" horiz-adv-x="1171" 
d="M1070 839q0 -131 -18.5 -256.5t-63 -235t-122.5 -192t-196 -129.5t-282 -47q-43 0 -99 5t-92 15v170q38 -13 87 -20t96 -7q186 0 291 75t150.5 204.5t51.5 293.5h-12q-30 -48 -76 -88t-113 -64t-160 -24q-126 0 -220 52.5t-146 152.5t-52 242q0 153 58 264.5t164 171.5
t250 60q109 0 201 -40.5t160 -121t105.5 -201t37.5 -280.5zM568 1314q-123 0 -199 -80.5t-76 -244.5q0 -136 65.5 -214.5t201.5 -78.5q94 0 162.5 38.5t106 97.5t37.5 121t-18 125.5t-55 117t-93 86t-132 32.5z" />
    <glyph glyph-name="colon" unicode=":" horiz-adv-x="550" 
d="M142 114q0 76 38.5 107.5t93.5 31.5q56 0 95 -31.5t39 -107.5q0 -74 -39 -108t-95 -34q-55 0 -93.5 34t-38.5 108zM142 986q0 77 38.5 108.5t93.5 31.5q56 0 95 -31.5t39 -108.5q0 -74 -39 -107t-95 -33q-55 0 -93.5 33t-38.5 107z" />
    <glyph glyph-name="semicolon" unicode=";" horiz-adv-x="550" 
d="M372 238l14 -23q-18 -72 -46 -155.5t-60.5 -166.5t-65.5 -157h-149q20 80 40 168.5t37 175t27 158.5h203zM139 986q0 77 38.5 108.5t93.5 31.5q57 0 95.5 -31.5t38.5 -108.5q0 -74 -38.5 -107t-95.5 -33q-55 0 -93.5 33t-38.5 107z" />
    <glyph glyph-name="less" unicode="&#x3c;" horiz-adv-x="1171" 
d="M1069 233l-970 429v107l970 481v-171l-757 -356l757 -320v-170z" />
    <glyph glyph-name="equal" unicode="=" horiz-adv-x="1171" 
d="M108 845v156h952v-156h-952zM108 441v156h952v-156h-952z" />
    <glyph glyph-name="greater" unicode="&#x3e;" horiz-adv-x="1171" 
d="M99 403l759 319l-759 357v171l970 -481v-107l-970 -429v170z" />
    <glyph glyph-name="question" unicode="?" horiz-adv-x="907" 
d="M285 426v57q0 77 16 133.5t54.5 106t106.5 103.5q74 60 117.5 103t63 86t19.5 103q0 94 -62.5 144t-175.5 50q-96 0 -174.5 -25.5t-153.5 -62.5l-71 155q86 46 187.5 75t224.5 29q198 0 307 -97t109 -262q0 -91 -29 -155.5t-83.5 -118.5t-131.5 -114q-64 -53 -98.5 -92.5
t-47 -80t-12.5 -97.5v-40h-166zM244 114q0 76 37.5 107.5t95.5 31.5q54 0 93 -31.5t39 -107.5q0 -74 -39 -108t-93 -34q-58 0 -95.5 34t-37.5 108z" />
    <glyph glyph-name="at" unicode="@" horiz-adv-x="1836" 
d="M1723 731q0 -95 -21.5 -186t-66 -164t-111 -116.5t-157.5 -43.5q-88 0 -144 49.5t-70 119.5h-10q-39 -72 -111.5 -120.5t-176.5 -48.5q-163 0 -251 105t-88 279q0 135 55 239t155 163.5t237 59.5q91 0 179.5 -15.5t140.5 -34.5l-20 -407q-1 -33 -2 -53t-1 -30
q0 -102 35 -137t83 -35q62 0 104 51t64 136.5t22 189.5q0 186 -75 317.5t-207 200.5t-302 69q-172 0 -304 -54t-223 -152.5t-138 -233t-47 -296.5q0 -199 71 -338.5t208.5 -212t335.5 -72.5q121 0 238 27t211 63v-146q-91 -38 -203 -62t-244 -24q-244 0 -417.5 90.5
t-265.5 260.5t-92 408q0 191 60 352.5t173 280.5t274 185t362 66q216 0 383 -88.5t262 -252t95 -389.5zM686 601q0 -128 51 -187t142 -59q112 0 163.5 84t59.5 222l12 251q-27 8 -65.5 13.5t-80.5 5.5q-102 0 -164 -47.5t-90 -122.5t-28 -160z" />
    <glyph glyph-name="A" unicode="A" horiz-adv-x="1325" 
d="M1108 0l-162 435h-573l-160 -435h-213l558 1468h210l555 -1468h-215zM889 613l-154 431q-7 22 -21.5 66t-29 91t-23.5 78q-10 -41 -23 -86.5t-25.5 -85t-20.5 -63.5l-156 -431h453z" />
    <glyph glyph-name="B" unicode="B" horiz-adv-x="1336" 
d="M196 1462h424q279 0 420 -82t141 -281q0 -85 -31 -152t-90 -111t-145 -60v-10q90 -15 160 -54t110.5 -110.5t40.5 -183.5q0 -134 -63 -227.5t-178.5 -142t-274.5 -48.5h-514v1462zM401 847h255q177 0 245 58t68 169q0 115 -81 165.5t-257 50.5h-230v-443zM401 678v-505
h279q181 0 255.5 71t74.5 191q0 76 -33.5 130.5t-108.5 83.5t-202 29h-265z" />
    <glyph glyph-name="C" unicode="C" horiz-adv-x="1294" 
d="M820 1306q-113 0 -202.5 -39.5t-151.5 -115t-95 -181.5t-33 -239q0 -177 52.5 -306t158.5 -199t267 -70q96 0 183.5 17.5t174.5 45.5v-176q-84 -32 -173.5 -47.5t-209.5 -15.5q-224 0 -372.5 93t-221.5 261.5t-73 397.5q0 166 46 303.5t135 238t218.5 155t298.5 54.5
q110 0 214.5 -23.5t192.5 -65.5l-76 -171q-73 33 -156.5 58t-176.5 25z" />
    <glyph glyph-name="D" unicode="D" horiz-adv-x="1494" 
d="M1370 745q0 -247 -91 -412.5t-263.5 -249t-418.5 -83.5h-401v1462h446q224 0 387 -81.5t252 -241t89 -394.5zM1155 739q0 188 -61 310t-179 181.5t-289 59.5h-225v-1116h189q283 0 424 142t141 423z" />
    <glyph glyph-name="E" unicode="E" horiz-adv-x="1140" 
d="M1017 0h-821v1462h821v-176h-616v-435h579v-174h-579v-500h616v-177z" />
    <glyph glyph-name="F" unicode="F" horiz-adv-x="1074" 
d="M400 0h-204v1462h820v-176h-616v-496h578v-175h-578v-615z" />
    <glyph glyph-name="G" unicode="G" horiz-adv-x="1488" 
d="M804 780h528v-721q-115 -39 -237 -59t-274 -20q-226 0 -381 90t-235.5 258t-80.5 404q0 227 89 396t259 262t410 93q120 0 230.5 -23t203.5 -64l-74 -173q-78 35 -172.5 59.5t-195.5 24.5q-168 0 -288.5 -71t-185 -200t-64.5 -306q0 -173 54 -302t169 -201t296 -72
q91 0 155.5 10t118.5 24v412h-325v179z" />
    <glyph glyph-name="H" unicode="H" horiz-adv-x="1524" 
d="M1327 0h-205v675h-721v-675h-205v1462h205v-610h721v610h205v-1462z" />
    <glyph glyph-name="I" unicode="I" horiz-adv-x="599" 
d="M196 0v1462h205v-1462h-205z" />
    <glyph glyph-name="J" unicode="J" horiz-adv-x="582" 
d="M0 -396q-53 0 -93 7t-68 18v173q32 -9 69 -15t79 -6q56 0 102 22t73 76t27 150v1433h206v-1423q0 -149 -48.5 -245.5t-137.5 -143t-209 -46.5z" />
    <glyph glyph-name="K" unicode="K" horiz-adv-x="1281" 
d="M1281 0h-239l-491 687l-150 -128v-559h-205v1462h205v-714q51 60 103.5 119t104.5 119l419 476h235l-564 -637z" />
    <glyph glyph-name="L" unicode="L" horiz-adv-x="1091" 
d="M196 0v1462h205v-1284h635v-178h-840z" />
    <glyph glyph-name="M" unicode="M" horiz-adv-x="1864" 
d="M833 0l-456 1257h-8q3 -41 6.5 -105.5t6 -140t2.5 -148.5v-863h-188v1462h295l433 -1191h7l444 1191h293v-1462h-198v875q0 66 2 137.5t5.5 136t6.5 106.5h-9l-467 -1255h-175z" />
    <glyph glyph-name="N" unicode="N" horiz-adv-x="1573" 
d="M1378 0h-246l-757 1198h-8q3 -54 7 -118.5t6.5 -135t3.5 -142.5v-802h-188v1462h244l754 -1192h7q-2 44 -5 109t-5.5 137.5t-2.5 137.5v808h190v-1462z" />
    <glyph glyph-name="O" unicode="O" horiz-adv-x="1602" 
d="M1479 733q0 -169 -43 -307.5t-127.5 -238t-211 -153.5t-295.5 -54q-172 0 -299.5 54t-211.5 154t-125.5 239t-41.5 308q0 225 74 394t225.5 262.5t381.5 93.5q222 0 372 -93t226 -261.5t76 -397.5zM339 733q0 -178 49.5 -307.5t152 -200t261.5 -70.5q161 0 263 70.5
t150 200t48 307.5q0 270 -110 422.5t-348 152.5q-160 0 -263 -69.5t-153 -198t-50 -307.5z" />
    <glyph glyph-name="P" unicode="P" horiz-adv-x="1246" 
d="M599 1462q283 0 413.5 -113t130.5 -321q0 -94 -30 -178.5t-97.5 -149t-177.5 -102t-270 -37.5h-167v-561h-205v1462h403zM583 1290h-182v-556h145q127 0 213 28.5t130 91.5t44 166q0 136 -85 203t-265 67z" />
    <glyph glyph-name="Q" unicode="Q" horiz-adv-x="1602" 
d="M1479 733q0 -176 -46.5 -319t-139 -243.5t-230.5 -149.5l346 -369h-282l-279 330q-12 0 -23 -1t-23 -1q-172 0 -299.5 54t-211.5 154t-125.5 239t-41.5 308q0 225 74 394t225.5 262.5t381.5 93.5q222 0 372 -93t226 -261.5t76 -397.5zM339 733q0 -178 49.5 -307.5
t152 -200t261.5 -70.5q161 0 263 70.5t150 200t48 307.5q0 270 -110 422.5t-348 152.5q-160 0 -263 -69.5t-153 -198t-50 -307.5z" />
    <glyph glyph-name="R" unicode="R" horiz-adv-x="1286" 
d="M599 1462q185 0 305.5 -45.5t179.5 -138t59 -234.5q0 -112 -41 -189t-107.5 -126t-142.5 -77l409 -652h-235l-356 598h-269v-598h-205v1462h403zM586 1288h-185v-519h199q173 0 253 67.5t80 199.5q0 137 -85 194.5t-262 57.5z" />
    <glyph glyph-name="S" unicode="S" horiz-adv-x="1124" 
d="M1031 393q0 -130 -64.5 -222.5t-181.5 -141.5t-278 -49q-81 0 -154.5 8.5t-136.5 24.5t-114 40v194q83 -34 192 -63.5t225 -29.5q101 0 169.5 27.5t103.5 77.5t35 120t-34 117.5t-107.5 87.5t-192.5 85q-83 30 -151 68.5t-117.5 88.5t-76.5 117.5t-27 155.5
q0 121 59.5 207t166.5 131.5t248 45.5q116 0 216.5 -23t191.5 -63l-65 -170q-85 35 -171 57t-178 22q-85 0 -143.5 -25t-89 -71t-30.5 -109q0 -71 32 -118t101 -85t180 -81q125 -48 212.5 -102t133.5 -130t46 -192z" />
    <glyph glyph-name="T" unicode="T" horiz-adv-x="1143" 
d="M674 0h-206v1285h-444v177h1093v-177h-443v-1285z" />
    <glyph glyph-name="U" unicode="U" horiz-adv-x="1507" 
d="M1323 1462v-946q0 -154 -63.5 -275t-191.5 -191t-322 -70q-275 0 -419.5 147.5t-144.5 392.5v942h206v-934q0 -185 92.5 -279t275.5 -94q126 0 206 45.5t118.5 129t38.5 198.5v934h204z" />
    <glyph glyph-name="V" unicode="V" horiz-adv-x="1249" 
d="M1249 1462l-518 -1462h-213l-518 1462h212l325 -940q18 -49 34 -103.5t30 -108.5t23 -99q9 45 22.5 99t30.5 109.5t34 105.5l324 937h214z" />
    <glyph glyph-name="W" unicode="W" horiz-adv-x="1913" 
d="M1891 1462l-386 -1462h-217l-267 930q-11 37 -22 80t-21.5 85.5t-17.5 76.5t-10 52q-2 -18 -8.5 -51.5t-15.5 -75.5t-20 -85.5t-22 -82.5l-261 -929h-216l-384 1462h209l223 -887q11 -44 21.5 -89.5t19.5 -91t16 -88t13 -80.5q5 39 13 83.5t17.5 90.5t20.5 91t23 86
l250 885h205l259 -890q12 -42 23.5 -88t21 -92t17 -88t13.5 -78q7 50 17.5 108t24.5 120t28 122l223 886h210z" />
    <glyph glyph-name="X" unicode="X" horiz-adv-x="1229" 
d="M1224 0h-234l-381 621l-386 -621h-218l486 760l-453 702h227l353 -569l352 569h219l-454 -704z" />
    <glyph glyph-name="Y" unicode="Y" horiz-adv-x="1178" 
d="M590 762l368 700h220l-486 -894v-568h-205v559l-487 903h224z" />
    <glyph glyph-name="Z" unicode="Z" horiz-adv-x="1176" 
d="M1104 0h-1033v146l765 1138h-740v178h988v-146l-766 -1138h786v-178z" />
    <glyph glyph-name="bracketleft" unicode="[" horiz-adv-x="672" 
d="M621 -324h-461v1786h461v-155h-274v-1475h274v-156z" />
    <glyph glyph-name="backslash" unicode="\" horiz-adv-x="775" 
d="M211 1462l546 -1462h-193l-545 1462h192z" />
    <glyph glyph-name="bracketright" unicode="]" horiz-adv-x="672" 
d="M51 -168h274v1475h-274v155h462v-1786h-462v156z" />
    <glyph glyph-name="asciicircum" unicode="^" horiz-adv-x="1171" 
d="M72 542l439 930h108l481 -930h-171l-361 720l-325 -720h-171z" />
    <glyph glyph-name="underscore" unicode="_" horiz-adv-x="883" 
d="M887 -311h-891v127h891v-127z" />
    <glyph glyph-name="grave" unicode="`" horiz-adv-x="611" 
d="M316 1569q26 -46 63 -102.5t77.5 -109.5t73.5 -91v-25h-135q-37 29 -82 69t-90 84.5t-82 85t-59 69.5v20h234z" />
    <glyph glyph-name="a" unicode="a" horiz-adv-x="1163" 
d="M593 1121q204 0 305 -90.5t101 -285.5v-745h-144l-39 160h-8q-46 -60 -96 -100t-115.5 -60t-159.5 -20q-100 0 -178 36t-122.5 108.5t-44.5 184.5q0 168 129 255t391 95l190 8v62q0 129 -57.5 182t-160.5 53q-85 0 -163 -24.5t-150 -58.5l-64 146q78 40 177.5 67
t208.5 27zM800 535l-154 -7q-191 -7 -268.5 -63.5t-77.5 -157.5q0 -88 53 -129t140 -41q134 0 220.5 75.5t86.5 223.5v99z" />
    <glyph glyph-name="b" unicode="b" horiz-adv-x="1264" 
d="M372 1556v-382q0 -66 -3.5 -129t-6.5 -97h10q45 72 127.5 122.5t212.5 50.5q201 0 322 -143.5t121 -425.5q0 -186 -55.5 -314t-156 -193t-236.5 -65q-129 0 -209 47.5t-125 113.5h-15l-38 -141h-149v1556h201zM667 956q-109 0 -173.5 -43t-92.5 -130t-29 -219v-15
q0 -196 64 -300t232 -104q138 0 209.5 106t71.5 303q0 200 -71 301t-211 101z" />
    <glyph glyph-name="c" unicode="c" horiz-adv-x="999" 
d="M614 -20q-152 0 -266 61t-176.5 186.5t-62.5 317.5q0 200 67 327.5t185.5 188.5t271.5 61q90 0 168.5 -18t131.5 -45l-60 -163q-56 22 -120.5 39t-122.5 17q-106 0 -175.5 -46.5t-104.5 -136.5t-35 -222q0 -128 34.5 -216.5t102 -134.5t168.5 -46q89 0 160 20t131 51
v-177q-58 -32 -128 -48t-169 -16z" />
    <glyph glyph-name="d" unicode="d" horiz-adv-x="1264" 
d="M552 -20q-202 0 -322.5 143t-120.5 424q0 284 122.5 429.5t325.5 145.5q85 0 149 -23t110.5 -61t77.5 -86h12q-5 31 -10 87t-5 98v419h201v-1556h-159l-33 153h-9q-30 -48 -76.5 -87.5t-111 -62.5t-151.5 -23zM599 144q163 0 230.5 94t68.5 279v31q0 197 -64.5 302.5
t-236.5 105.5q-140 0 -211 -109.5t-71 -303.5q0 -192 71 -295.5t213 -103.5z" />
    <glyph glyph-name="e" unicode="e" horiz-adv-x="1165" 
d="M603 1122q144 0 247 -61.5t158 -173.5t55 -264v-114h-748q3 -177 91 -271.5t247 -94.5q105 0 187 20t170 59v-169q-83 -38 -166.5 -55.5t-199.5 -17.5q-160 0 -280.5 64t-187.5 189.5t-67 309.5q0 182 61 311.5t172 198.5t261 69zM602 966q-122 0 -196 -79.5t-87 -227.5
h542q-1 91 -29 160t-84.5 108t-145.5 39z" />
    <glyph glyph-name="f" unicode="f" horiz-adv-x="715" 
d="M692 947h-271v-947h-201v947h-187v97l187 61v76q0 139 43 223.5t123.5 123.5t195.5 39q69 0 126.5 -12t99.5 -27l-52 -154q-34 11 -76 20.5t-89 9.5q-87 0 -128.5 -56t-41.5 -169v-77h271v-155z" />
    <glyph glyph-name="g" unicode="g" horiz-adv-x="1123" 
d="M483 -492q-221 0 -339.5 81t-118.5 226q0 103 65 174.5t182 96.5q-44 20 -75.5 61.5t-31.5 93.5q0 61 34.5 105.5t103.5 86.5q-87 36 -140 119.5t-53 195.5q0 119 50.5 203t145.5 128t231 44q30 0 62 -2.5t61 -7.5t47 -10h380v-119l-196 -30q29 -38 47 -90t18 -114
q0 -168 -114.5 -265.5t-316.5 -97.5q-47 1 -95 8q-43 -25 -65 -54.5t-22 -67.5q0 -29 19.5 -47t56.5 -26.5t90 -8.5h192q180 0 276 -76t96 -222q0 -185 -152 -285t-438 -100zM490 -345q129 0 215.5 26t130.5 74t44 114q0 60 -28.5 91.5t-84.5 42.5t-138 11h-182
q-70 0 -122 -22t-81 -63.5t-29 -102.5q0 -83 71.5 -127t203.5 -44zM534 524q111 0 166 58.5t55 167.5q0 117 -56 176t-166 59q-107 0 -163.5 -60.5t-56.5 -176.5q0 -107 57 -165.5t164 -58.5z" />
    <glyph glyph-name="h" unicode="h" horiz-adv-x="1279" 
d="M372 1556v-428q0 -51 -3 -100t-7 -82h12q35 58 86.5 96.5t117 58t138.5 19.5q129 0 218 -42t135 -130.5t46 -229.5v-718h-199v691q0 132 -58 198.5t-178 66.5q-114 0 -182 -45.5t-97 -133.5t-29 -216v-561h-201v1556h201z" />
    <glyph glyph-name="i" unicode="i" horiz-adv-x="544" 
d="M372 1102v-1102h-201v1102h201zM273 1519q48 0 82.5 -28t34.5 -91t-34.5 -91.5t-82.5 -28.5q-49 0 -82.5 28.5t-33.5 91.5t33.5 91t82.5 28z" />
    <glyph glyph-name="j" unicode="j" horiz-adv-x="544" 
d="M50 -492q-51 0 -93.5 7.5t-73.5 17.5v161q33 -10 65 -15t72 -5q67 0 109 37t42 137v1254h201v-1262q0 -100 -33.5 -175t-105 -116t-183.5 -41zM157 1400q0 63 33.5 91t82.5 28q48 0 82.5 -28t34.5 -91t-34.5 -91.5t-82.5 -28.5q-49 0 -82.5 28.5t-33.5 91.5z" />
    <glyph glyph-name="k" unicode="k" horiz-adv-x="1125" 
d="M371 1556v-780q0 -46 -3.5 -104.5t-6.5 -107.5h7q23 30 61.5 79t68.5 83l352 376h232l-442 -473l473 -629h-238l-371 503l-133 -118v-385h-200v1556h200z" />
    <glyph glyph-name="l" unicode="l" horiz-adv-x="544" 
d="M373 0h-202v1556h202v-1556z" />
    <glyph glyph-name="m" unicode="m" horiz-adv-x="1925" 
d="M1392 1122q183 0 276.5 -95.5t93.5 -305.5v-721h-199v696q0 130 -53.5 195t-159.5 65q-150 0 -216.5 -90.5t-66.5 -265.5v-600h-200v696q0 87 -24 144.5t-71 86.5t-119 29q-103 0 -164.5 -44.5t-89 -131.5t-27.5 -213v-567h-201v1102h159l29 -152h11q33 57 83.5 95
t112.5 57.5t131 19.5q124 0 209 -45t125 -137h13q53 93 146.5 137.5t201.5 44.5z" />
    <glyph glyph-name="n" unicode="n" horiz-adv-x="1279" 
d="M719 1122q191 0 293.5 -96t102.5 -308v-718h-199v691q0 132 -58 198.5t-178 66.5q-171 0 -239.5 -101t-68.5 -293v-562h-201v1102h159l29 -155h11q35 58 89 97t120.5 58.5t139.5 19.5z" />
    <glyph glyph-name="o" unicode="o" horiz-adv-x="1241" 
d="M1134 553q0 -136 -35.5 -242.5t-103 -180t-162.5 -112t-215 -38.5q-112 0 -205.5 38.5t-161.5 112t-105 180t-37 242.5q0 181 62 308.5t177.5 194t275.5 66.5q152 0 267 -67t179 -194t64 -308zM315 553q0 -127 32.5 -218.5t100 -140.5t174.5 -49q105 0 173 49t100 140.5
t32 218.5q0 126 -32 216t-99.5 138t-175.5 48q-158 0 -231.5 -105.5t-73.5 -296.5z" />
    <glyph glyph-name="p" unicode="p" horiz-adv-x="1264" 
d="M713 1122q201 0 321.5 -142.5t120.5 -425.5q0 -188 -55.5 -315.5t-156 -193t-235.5 -65.5q-85 0 -149 22.5t-109.5 60t-76.5 80.5h-13q4 -39 8.5 -90.5t4.5 -92.5v-450h-202v1592h165l27 -158h10q31 49 76.5 89.5t110.5 64.5t153 24zM667 956q-106 0 -169.5 -41.5
t-93 -123.5t-31.5 -206v-32q0 -132 28 -222.5t93 -138t175 -47.5q94 0 156.5 51t93 144t30.5 216q0 187 -69 293.5t-213 106.5z" />
    <glyph glyph-name="q" unicode="q" horiz-adv-x="1264" 
d="M890 -490v469q0 40 2.5 89t7.5 87h-11q-45 -74 -128 -124.5t-214 -50.5q-198 0 -318.5 143t-120.5 426q0 186 55.5 314t156.5 193.5t235 65.5q129 0 210.5 -50.5t128.5 -123.5h8l26 154h163v-1592h-201zM598 143q108 0 172.5 41t94.5 123.5t32 206.5v35
q0 200 -66.5 303.5t-234.5 103.5q-142 0 -211.5 -109.5t-69.5 -301.5q0 -193 69.5 -297.5t213.5 -104.5z" />
    <glyph glyph-name="r" unicode="r" horiz-adv-x="860" 
d="M701 1122q30 0 65 -3.5t60 -8.5l-21 -187q-24 6 -55.5 10t-58.5 4q-64 0 -122 -24t-102 -69.5t-69 -111t-25 -149.5v-583h-202v1102h162l24 -199h9q34 60 82.5 110t112 79.5t140.5 29.5z" />
    <glyph glyph-name="s" unicode="s" horiz-adv-x="987" 
d="M898 308q0 -107 -52.5 -180.5t-152.5 -110.5t-240 -37q-116 0 -200 17.5t-152 50.5v178q73 -35 169 -62t188 -27q129 0 186.5 41t57.5 111q0 41 -23 72.5t-80.5 63t-164.5 72.5q-105 41 -179.5 82t-113.5 99t-39 150q0 143 114.5 218.5t302.5 75.5q100 0 188.5 -20
t169.5 -56l-65 -155q-72 31 -148 51.5t-155 20.5q-103 0 -157.5 -33t-54.5 -91q0 -45 25.5 -75t85.5 -58.5t162 -67.5q101 -38 174.5 -79t113.5 -100t40 -151z" />
    <glyph glyph-name="t" unicode="t" horiz-adv-x="770" 
d="M555 143q43 0 87 7.5t76 19.5v-154q-34 -15 -90.5 -25.5t-115.5 -10.5q-90 0 -163 31t-116.5 106t-43.5 208v622h-153v93l160 74l71 238h124v-250h319v-155h-319v-619q0 -93 44.5 -139t119.5 -46z" />
    <glyph glyph-name="u" unicode="u" horiz-adv-x="1279" 
d="M1107 1102v-1102h-161l-28 151h-11q-34 -57 -88 -95t-121 -57t-142 -19q-127 0 -215.5 42t-134 130.5t-45.5 228.5v721h202v-693q0 -133 57.5 -199t175.5 -66q115 0 182.5 45.5t97 133t29.5 214.5v565h202z" />
    <glyph glyph-name="v" unicode="v" horiz-adv-x="1059" 
d="M419 0l-419 1102h213l235 -657q23 -65 45.5 -142t30.5 -127h7q10 51 34 128t46 141l234 657h214l-420 -1102h-220z" />
    <glyph glyph-name="w" unicode="w" horiz-adv-x="1629" 
d="M1070 2l-168 576q-11 39 -23.5 86t-24.5 94t-21.5 87.5t-14.5 65.5h-8q-5 -25 -14 -65.5t-20.5 -88t-24 -95.5t-24.5 -87l-176 -573h-222l-306 1101h205l151 -577q15 -58 29 -120t24 -117t15 -94h8q5 26 12.5 64.5t16.5 81t19.5 82.5t19.5 70l186 610h218l179 -609
q13 -44 27 -98.5t25 -107.5t15 -91h8q4 34 15 88t25 117.5t30 123.5l153 577h202l-308 -1101h-228z" />
    <glyph glyph-name="x" unicode="x" horiz-adv-x="1100" 
d="M424 564l-374 538h229l271 -406l271 406h227l-375 -538l395 -564h-229l-289 431l-291 -431h-227z" />
    <glyph glyph-name="y" unicode="y" horiz-adv-x="1061" 
d="M2 1102h217l234 -635q18 -49 33.5 -95.5t27 -90t18.5 -85.5h7q12 51 34 124t48 148l224 634h216l-476 -1258q-39 -105 -94.5 -180.5t-131.5 -116t-180 -40.5q-48 0 -84.5 5.5t-62.5 12.5v160q22 -5 53.5 -9t65.5 -4q63 0 108.5 24.5t78 69.5t54.5 105l50 130z" />
    <glyph glyph-name="z" unicode="z" horiz-adv-x="970" 
d="M894 0h-820v128l580 818h-544v156h770v-142l-571 -805h585v-155z" />
    <glyph glyph-name="braceleft" unicode="{" horiz-adv-x="778" 
d="M708 -324q-137 1 -228 34.5t-135.5 102.5t-44.5 174v308q0 69 -28.5 111.5t-84 62t-136.5 19.5v163q81 1 136.5 20t84 61t28.5 112v310q0 105 46.5 173t137.5 101.5t224 33.5v-158q-69 -2 -118 -20.5t-75 -58.5t-26 -105v-300q0 -102 -55 -163t-166 -80v-12
q113 -19 167 -80t54 -163v-305q0 -65 25.5 -104.5t74.5 -57.5t119 -19v-160z" />
    <glyph glyph-name="bar" unicode="|" horiz-adv-x="1126" 
d="M483 1555h159v-2043h-159v2043z" />
    <glyph glyph-name="braceright" unicode="}" horiz-adv-x="778" 
d="M71 -324v160q69 2 117.5 20t74.5 57.5t26 104.5v302q0 103 55 164t165 79v12q-111 19 -165.5 80.5t-54.5 162.5v303q0 66 -25.5 105.5t-74.5 58t-118 19.5v158q137 -1 227.5 -34t135 -101.5t44.5 -173.5v-308q0 -70 28.5 -112.5t84.5 -62t137 -19.5v-163
q-81 0 -137 -19.5t-84.5 -61.5t-28.5 -111v-311q0 -104 -46.5 -172.5t-137 -102.5t-223.5 -34z" />
    <glyph glyph-name="asciitilde" unicode="~" horiz-adv-x="1171" 
d="M553 648q-72 32 -122 44t-97 12q-57 0 -120.5 -34t-114.5 -86v170q51 53 113 80t136 27q61 0 120 -13t149 -52q74 -31 123.5 -43.5t94.5 -12.5q59 0 121.5 34t112.5 86v-168q-48 -52 -110 -80.5t-137 -28.5q-60 0 -119 12.5t-150 52.5z" />
    <glyph glyph-name="uni00A0" unicode="&#xa0;" horiz-adv-x="532" 
 />
    <glyph glyph-name="exclamdown" unicode="&#xa1;" horiz-adv-x="552" 
d="M201 662h144l48 -1035h-239zM408 976q0 -76 -38.5 -107.5t-94.5 -31.5q-55 0 -94 31.5t-39 107.5q0 74 39 107.5t94 33.5q56 0 94.5 -33.5t38.5 -107.5z" />
    <glyph glyph-name="cent" unicode="&#xa2;" horiz-adv-x="1171" 
d="M725 1483v-163q82 -3 153.5 -20.5t123.5 -41.5l-59 -163q-59 23 -124.5 39t-122.5 16q-106 0 -176.5 -45.5t-105 -135.5t-34.5 -226q0 -134 35 -221.5t103 -130.5t170 -43q89 0 157.5 17.5t135.5 46.5v-172q-58 -28 -118.5 -44.5t-138.5 -19.5v-196h-141v202
q-126 18 -218 81.5t-141 181t-49 296.5q0 185 50.5 305t142.5 184t215 82v171h142z" />
    <glyph glyph-name="sterling" unicode="&#xa3;" horiz-adv-x="1171" 
d="M690 1482q111 0 201.5 -24t163.5 -58l-68 -158q-64 29 -137 51t-151 22q-107 0 -166.5 -57.5t-59.5 -187.5v-264h406v-150h-406v-202q0 -81 -20.5 -134.5t-53.5 -86.5t-71 -54h774v-179h-1030v168q60 17 105 49.5t70.5 89.5t25.5 145v204h-194v150h194v278
q0 131 52.5 219t146.5 133.5t218 45.5z" />
    <glyph glyph-name="currency" unicode="&#xa4;" horiz-adv-x="1171" 
d="M184 723q0 61 19 118t51 105l-135 137l106 104l135 -132q48 33 105.5 51t120.5 18q61 0 116.5 -18t104.5 -51l136 132l107 -103l-134 -137q31 -47 50.5 -104.5t19.5 -119.5t-18 -119.5t-52 -105.5l131 -135l-104 -103l-136 132q-47 -31 -103.5 -49.5t-117.5 -18.5
q-64 0 -122 18t-104 51l-135 -132l-105 103l134 136q-32 48 -51 105t-19 118zM332 723q0 -71 34 -128.5t91.5 -91t127.5 -33.5q72 0 130 34t92 91.5t34 127.5q0 72 -34 130t-92 92.5t-129 34.5t-128.5 -34.5t-91.5 -92.5t-34 -130z" />
    <glyph glyph-name="yen" unicode="&#xa5;" horiz-adv-x="1171" 
d="M584 771l349 691h209l-410 -765h246v-137h-297v-165h297v-136h-297v-259h-194v259h-298v136h298v165h-298v137h242l-406 765h212z" />
    <glyph glyph-name="brokenbar" unicode="&#xa6;" horiz-adv-x="1126" 
d="M483 1555h159v-786h-159v786zM483 299h159v-787h-159v787z" />
    <glyph glyph-name="section" unicode="&#xa7;" horiz-adv-x="1038" 
d="M135 807q0 98 48.5 160.5t111.5 95.5q-72 39 -113 95t-41 139q0 123 105.5 196t294.5 73q110 0 191.5 -20.5t158.5 -51.5l-58 -144q-69 29 -139.5 50t-162.5 21q-114 0 -163.5 -31t-49.5 -89q0 -39 25 -69t82 -58t152 -63q101 -38 175.5 -82.5t114.5 -103.5t40 -142
q0 -103 -44 -168.5t-105 -100.5q70 -38 108.5 -92t38.5 -132q0 -142 -116.5 -222t-323.5 -80q-112 0 -196.5 19t-150.5 51v160q47 -22 106 -42.5t122 -32.5t124 -12q144 0 199 43t55 101q0 40 -20 69.5t-75 59t-159 68.5q-104 40 -179 82.5t-115.5 102.5t-40.5 150zM298 826
q0 -50 28 -88.5t89.5 -72.5t160.5 -72l44 -16q46 27 84 71.5t38 110.5q0 50 -27 90.5t-92.5 76t-183.5 72.5q-55 -16 -98 -61t-43 -111z" />
    <glyph glyph-name="dieresis" unicode="&#xa8;" horiz-adv-x="1201" 
d="M302 1397q0 55 30 80.5t73 25.5t73.5 -25.5t30.5 -80.5q0 -54 -30.5 -80.5t-73.5 -26.5t-73 26.5t-30 80.5zM691 1397q0 55 29.5 80.5t72.5 25.5t74 -25.5t31 -80.5q0 -54 -31 -80.5t-74 -26.5t-72.5 26.5t-29.5 80.5z" />
    <glyph glyph-name="copyright" unicode="&#xa9;" horiz-adv-x="1704" 
d="M852 -20q-163 0 -300.5 56t-239 157t-157 238.5t-55.5 299.5q0 161 56 298.5t158 239t239.5 158t298.5 56.5q157 0 293.5 -56t239.5 -157.5t161 -238.5t58 -300q0 -162 -56 -299.5t-157.5 -238.5t-238.5 -157t-300 -56zM884 271q-204 0 -306.5 125.5t-102.5 334.5
q0 134 48.5 237.5t142 162.5t226.5 59q65 0 130.5 -16t122.5 -45l-57 -122q-50 26 -99 39.5t-95 13.5q-126 0 -195 -88t-69 -241q0 -159 62.5 -244.5t198.5 -85.5q49 0 107 13t110 34v-127q-49 -22 -101 -36t-123 -14zM852 89q131 0 246 47.5t202 134t136.5 203.5t49.5 257
q0 133 -47.5 249t-132.5 205t-200.5 139t-253.5 50t-254 -47.5t-201.5 -134t-132.5 -204t-47 -257.5q0 -134 46.5 -250.5t132 -204.5t201.5 -137.5t255 -49.5z" />
    <glyph glyph-name="ordfeminine" unicode="&#xaa;" horiz-adv-x="738" 
d="M373 1479q134 0 201 -59.5t67 -180.5v-448h-102l-25 93q-40 -47 -98.5 -76.5t-134.5 -29.5q-66 0 -115.5 22.5t-76 69t-26.5 115.5q0 71 36.5 117.5t110 71t183.5 28.5l108 4v40q0 63 -39.5 90.5t-102.5 27.5q-52 0 -105 -15t-102 -40l-49 105q56 28 124.5 46.5
t145.5 18.5zM501 1110l-98 -4q-116 -5 -156.5 -36.5t-40.5 -84.5q0 -49 29 -72t77 -23q97 0 143 48t46 126v46z" />
    <glyph glyph-name="guillemotleft" unicode="&#xab;" horiz-adv-x="1076" 
d="M80 560l348 421l144 -81l-285 -352l285 -351l-144 -82l-348 419v26zM505 560l351 421l143 -81l-284 -352l284 -351l-143 -82l-351 419v26z" />
    <glyph glyph-name="logicalnot" unicode="&#xac;" horiz-adv-x="1171" 
d="M1065 800v-541h-155v385h-811v156h966z" />
    <glyph glyph-name="uni00AD" unicode="&#xad;" horiz-adv-x="659" 
d="M77 463v174h506v-174h-506z" />
    <glyph glyph-name="registered" unicode="&#xae;" horiz-adv-x="1704" 
d="M572 284v896h264q164 0 242 -67t78 -199q0 -97 -49.5 -153.5t-113.5 -81.5l238 -395h-170l-204 353h-135v-353h-150zM722 760h109q82 0 127.5 40.5t45.5 109.5q0 76 -42 109.5t-133 33.5h-107v-293zM852 -20q-163 0 -300.5 56t-239 157t-157 238.5t-55.5 299.5
q0 161 56 298.5t158 239t239.5 158t298.5 56.5q157 0 293.5 -56t239.5 -157.5t161 -238.5t58 -300q0 -162 -56 -299.5t-157.5 -238.5t-238.5 -157t-300 -56zM852 89q131 0 246 47.5t202 134t136.5 203.5t49.5 257q0 133 -47.5 249t-132.5 205t-200.5 139t-253.5 50
t-254 -47.5t-201.5 -134t-132.5 -204t-47 -257.5q0 -134 46.5 -250.5t132 -204.5t201.5 -137.5t255 -49.5z" />
    <glyph glyph-name="overscore" unicode="&#xaf;" horiz-adv-x="1024" 
d="M1030 1556h-1036v146h1036v-146z" />
    <glyph glyph-name="degree" unicode="&#xb0;" horiz-adv-x="877" 
d="M438 843q-98 0 -172.5 40t-116 112.5t-41.5 166.5q0 95 41 167t115 113t174 41q98 0 172.5 -40.5t116.5 -113t42 -167.5q0 -94 -42 -166.5t-116.5 -112.5t-172.5 -40zM440 976q89 0 137.5 51t48.5 135q0 87 -49.5 138.5t-136.5 51.5q-92 0 -140 -51.5t-48 -138.5
q0 -84 47.5 -135t140.5 -51z" />
    <glyph glyph-name="plusminus" unicode="&#xb1;" horiz-adv-x="1171" 
d="M99 0v156h971v-156h-971zM663 819h405v-156h-405v-415h-158v415h-406v156h406v417h158v-417z" />
    <glyph glyph-name="uni00B2" unicode="&#xb2;" horiz-adv-x="728" 
d="M646 852h-595v120l234 229q77 75 118.5 123t57.5 87t16 83q0 59 -35 90.5t-95 31.5q-56 0 -105.5 -22.5t-102.5 -65.5l-81 105q62 52 134.5 83.5t164.5 31.5q130 0 206 -64.5t76 -179.5q0 -66 -26 -122t-78.5 -113.5t-130.5 -130.5l-154 -146h396v-140z" />
    <glyph glyph-name="uni00B3" unicode="&#xb3;" horiz-adv-x="728" 
d="M349 1747q138 0 213.5 -63t75.5 -163q0 -80 -43.5 -132.5t-112.5 -73.5v-8q86 -17 133.5 -71t47.5 -134q0 -119 -86 -192t-266 -73q-75 0 -140.5 14t-127.5 45v139q67 -34 135.5 -54t132.5 -20q100 0 147 39.5t47 108.5q0 67 -53 101.5t-158 34.5h-118v119h113
q104 0 147.5 39t43.5 100q0 58 -38 88.5t-99 30.5q-59 0 -111.5 -21t-107.5 -57l-76 102q62 45 133 73t168 28z" />
    <glyph glyph-name="acute" unicode="&#xb4;" horiz-adv-x="611" 
d="M530 1569v-20q-22 -29 -59.5 -69.5t-82.5 -85t-90 -84.5t-82 -69h-134v25q32 38 71.5 91t77.5 109.5t63 102.5h236z" />
    <glyph glyph-name="uni00B5" unicode="&#xb5;" horiz-adv-x="1288" 
d="M1116 1102v-1102h-159l-30 152h-10q-33 -55 -77 -93.5t-102.5 -58.5t-133.5 -20q-80 0 -138 26t-96 72h-7q3 -24 5 -61.5t3 -83t1 -94.5v-331h-201v1594h201v-695q0 -129 59 -196t179 -67q116 0 182.5 45.5t95 133.5t28.5 214v565h200z" />
    <glyph glyph-name="paragraph" unicode="&#xb6;" horiz-adv-x="1341" 
d="M1130 -260h-124v1686h-203v-1686h-125v833q-31 -9 -69 -13.5t-77 -4.5q-125 0 -217.5 48t-143.5 157t-51 290q0 191 55.5 301.5t155 157.5t232.5 47h567v-1816z" />
    <glyph glyph-name="periodcentered" unicode="&#xb7;" horiz-adv-x="550" 
d="M142 716q0 76 38.5 107.5t93.5 31.5q56 0 95 -31.5t39 -107.5q0 -74 -39 -108t-95 -34q-55 0 -93.5 34t-38.5 108z" />
    <glyph glyph-name="cedilla" unicode="&#xb8;" horiz-adv-x="446" 
d="M425 -277q0 -101 -73 -158t-226 -57q-34 0 -64 4t-50 10v120q21 -4 54 -8t63 -4q64 0 99.5 19.5t35.5 67.5q0 51 -49.5 77t-134.5 36l86 170h131l-47 -99q48 -11 87.5 -33t63.5 -57.5t24 -87.5z" />
    <glyph glyph-name="uni00B9" unicode="&#xb9;" horiz-adv-x="728" 
d="M507 1729v-877h-161v536q0 34 1 68.5t2.5 67t3.5 58.5q-18 -19 -43.5 -40.5t-51.5 -39.5l-101 -73l-77 102l276 198h151z" />
    <glyph glyph-name="ordmasculine" unicode="&#xba;" horiz-adv-x="773" 
d="M710 1130q0 -166 -88 -259t-237 -93q-141 0 -230.5 91t-89.5 261q0 168 86.5 259t237.5 91q97 0 168.5 -41t112 -119t40.5 -190zM206 1130q0 -115 42.5 -174.5t137.5 -59.5q94 0 137 59.5t43 174.5t-42.5 173.5t-136.5 58.5t-137.5 -57.5t-43.5 -174.5z" />
    <glyph glyph-name="guillemotright" unicode="&#xbb;" horiz-adv-x="1076" 
d="M997 534l-351 -419l-142 82l284 352l-284 351l142 81l351 -420v-27zM570 534l-349 -419l-143 82l284 352l-284 351l143 81l349 -420v-27z" />
    <glyph glyph-name="onequarter" unicode="&#xbc;" horiz-adv-x="1562" 
d="M277 0l861 1462h168l-862 -1462h-167zM327 586v536q0 34 1 68.5t2.5 67t3.5 58.5q-19 -19 -44 -40.5t-51 -40.5l-101 -72l-77 102l275 197h151v-876h-160zM1250 0v192h-397v112l400 579h163v-564h127v-127h-127v-192h-166zM1000 319h250v196q0 44 1 97t4 102
q-10 -26 -39 -74t-51 -80z" />
    <glyph glyph-name="onehalf" unicode="&#xbd;" horiz-adv-x="1627" 
d="M236 0l862 1462h167l-862 -1462h-167zM310 586v536q0 25 0.5 51t2 51.5t3 48.5t2.5 43q-20 -19 -45 -40.5t-51 -40.5l-101 -72l-77 102l276 197h151v-876h-161zM951 0v120l233 229q77 75 118.5 123t58 87t16.5 83q0 59 -36 90.5t-95 31.5q-56 0 -105.5 -22.5
t-101.5 -65.5l-81 105q61 52 134 83.5t164 31.5q131 0 206.5 -64.5t75.5 -179.5q0 -66 -26.5 -122t-78.5 -113.5t-130 -130.5l-153 -146h395v-140h-594z" />
    <glyph glyph-name="threequarters" unicode="&#xbe;" horiz-adv-x="1628" 
d="M365 0l862 1462h167l-861 -1462h-168zM316 570q-75 0 -141 14.5t-128 45.5v138q68 -34 136.5 -53.5t133.5 -19.5q99 0 146.5 39t47.5 109q0 67 -53.5 101t-159.5 34h-117v120h112q104 0 148 39t44 100q0 58 -38 88.5t-99 30.5q-60 0 -111.5 -21t-107.5 -57l-77 101
q62 46 134 74t168 28q138 0 213 -63t75 -164q0 -79 -43 -131.5t-112 -73.5v-9q86 -17 134 -70.5t48 -133.5q0 -120 -86.5 -193t-266.5 -73zM1317 0v192h-397v112l400 579h163v-564h127v-127h-127v-192h-166zM1068 319h249v196q0 44 1.5 97t4.5 102q-12 -26 -40.5 -74
t-50.5 -80z" />
    <glyph glyph-name="questiondown" unicode="&#xbf;" horiz-adv-x="907" 
d="M622 664v-57q0 -76 -16 -133t-54.5 -106t-106.5 -104q-74 -60 -118 -102.5t-63 -86t-19 -102.5q0 -94 63 -144.5t175 -50.5q95 0 174 26t154 62l71 -155q-87 -46 -187.5 -75t-224.5 -29q-199 0 -307.5 97.5t-108.5 261.5q0 91 29 155.5t84 118.5t130 114q66 53 99.5 92.5
t46.5 80.5t13 98v39h166zM663 976q0 -76 -37.5 -107.5t-95.5 -31.5q-54 0 -93 31.5t-39 107.5q0 75 39 108.5t93 33.5q58 0 95.5 -33.5t37.5 -108.5z" />
    <glyph glyph-name="Agrave" unicode="&#xc0;" horiz-adv-x="1325" 
d="M1108 0l-162 435h-573l-160 -435h-213l558 1468h210l555 -1468h-215zM889 613l-154 431q-7 22 -21.5 66t-29 91t-23.5 78q-10 -41 -23 -86.5t-25.5 -85t-20.5 -63.5l-156 -431h453zM597 1930q26 -46 63 -102.5t77.5 -109.5t73.5 -91v-25h-135q-37 29 -82 69t-90 84.5
t-82 85t-59 69.5v20h234z" />
    <glyph glyph-name="Aacute" unicode="&#xc1;" horiz-adv-x="1325" 
d="M1108 0l-162 435h-573l-160 -435h-213l558 1468h210l555 -1468h-215zM889 613l-154 431q-7 22 -21.5 66t-29 91t-23.5 78q-10 -41 -23 -86.5t-25.5 -85t-20.5 -63.5l-156 -431h453zM976 1930v-20q-22 -29 -59.5 -69.5t-82.5 -85t-90 -84.5t-82 -69h-134v25q32 38 71.5 91
t77.5 109.5t63 102.5h236z" />
    <glyph glyph-name="Acircumflex" unicode="&#xc2;" horiz-adv-x="1325" 
d="M1108 0l-162 435h-573l-160 -435h-213l558 1468h210l555 -1468h-215zM889 613l-154 431q-7 22 -21.5 66t-29 91t-23.5 78q-10 -41 -23 -86.5t-25.5 -85t-20.5 -63.5l-156 -431h453zM771 1929q26 -45 71.5 -101.5t95.5 -110t88 -92.5v-23h-139q-54 34 -112.5 83.5
t-112.5 104.5q-54 -55 -111 -103.5t-111 -84.5h-136v23q38 40 86.5 93.5t93.5 109.5t72 101h215z" />
    <glyph glyph-name="Atilde" unicode="&#xc3;" horiz-adv-x="1325" 
d="M1108 0l-162 435h-573l-160 -435h-213l558 1468h210l555 -1468h-215zM889 613l-154 431q-7 22 -21.5 66t-29 91t-23.5 78q-10 -41 -23 -86.5t-25.5 -85t-20.5 -63.5l-156 -431h453zM275 1604q6 65 24.5 115t49 84t71 51.5t88.5 17.5q45 0 86.5 -17.5t79.5 -40.5t74 -40.5
t70 -17.5q43 0 70 28.5t41 89.5h111q-13 -127 -74.5 -198t-158.5 -71q-44 0 -84.5 18t-78.5 40.5t-74.5 40.5t-72.5 18q-44 0 -70.5 -28.5t-40.5 -89.5h-111z" />
    <glyph glyph-name="Adieresis" unicode="&#xc4;" horiz-adv-x="1325" 
d="M1108 0l-162 435h-573l-160 -435h-213l558 1468h210l555 -1468h-215zM889 613l-154 431q-7 22 -21.5 66t-29 91t-23.5 78q-10 -41 -23 -86.5t-25.5 -85t-20.5 -63.5l-156 -431h453zM362 1758q0 55 30 80.5t73 25.5t73.5 -25.5t30.5 -80.5q0 -54 -30.5 -80.5t-73.5 -26.5
t-73 26.5t-30 80.5zM751 1758q0 55 29.5 80.5t72.5 25.5t74 -25.5t31 -80.5q0 -54 -31 -80.5t-74 -26.5t-72.5 26.5t-29.5 80.5z" />
    <glyph glyph-name="Aring" unicode="&#xc5;" horiz-adv-x="1325" 
d="M1108 0l-162 435h-573l-160 -435h-213l558 1468h210l555 -1468h-215zM889 613l-154 431q-7 22 -21.5 66t-29 91t-23.5 78q-10 -41 -23 -86.5t-25.5 -85t-20.5 -63.5l-156 -431h453zM659 1361q-101 0 -164.5 59t-63.5 163q0 102 63.5 161t164.5 59q98 0 165 -58.5
t67 -159.5q0 -105 -66.5 -164.5t-165.5 -59.5zM659 1469q50 0 82 30.5t32 83.5q0 52 -33 82.5t-81 30.5t-81 -30.5t-33 -82.5q0 -53 29.5 -83.5t84.5 -30.5z" />
    <glyph glyph-name="AE" unicode="&#xc6;" horiz-adv-x="1821" 
d="M1706 0h-791v435h-502l-204 -435h-210l679 1462h1028v-176h-586v-435h548v-174h-548v-500h586v-177zM491 613h424v669h-118z" />
    <glyph glyph-name="Ccedilla" unicode="&#xc7;" horiz-adv-x="1294" 
d="M820 1306q-113 0 -202.5 -39.5t-151.5 -115t-95 -181.5t-33 -239q0 -177 52.5 -306t158.5 -199t267 -70q96 0 183.5 17.5t174.5 45.5v-176q-84 -32 -173.5 -47.5t-209.5 -15.5q-224 0 -372.5 93t-221.5 261.5t-73 397.5q0 166 46 303.5t135 238t218.5 155t298.5 54.5
q110 0 214.5 -23.5t192.5 -65.5l-76 -171q-73 33 -156.5 58t-176.5 25zM970 -277q0 -101 -73 -158t-226 -57q-34 0 -64 4t-50 10v120q21 -4 54 -8t63 -4q64 0 99.5 19.5t35.5 67.5q0 51 -49.5 77t-134.5 36l86 170h131l-47 -99q48 -11 87.5 -33t63.5 -57.5t24 -87.5z" />
    <glyph glyph-name="Egrave" unicode="&#xc8;" horiz-adv-x="1140" 
d="M1017 0h-821v1462h821v-176h-616v-435h579v-174h-579v-500h616v-177zM560 1930q26 -46 63 -102.5t77.5 -109.5t73.5 -91v-25h-135q-37 29 -82 69t-90 84.5t-82 85t-59 69.5v20h234z" />
    <glyph glyph-name="Eacute" unicode="&#xc9;" horiz-adv-x="1140" 
d="M1017 0h-821v1462h821v-176h-616v-435h579v-174h-579v-500h616v-177zM939 1930v-20q-22 -29 -59.5 -69.5t-82.5 -85t-90 -84.5t-82 -69h-134v25q32 38 71.5 91t77.5 109.5t63 102.5h236z" />
    <glyph glyph-name="Ecircumflex" unicode="&#xca;" horiz-adv-x="1140" 
d="M1017 0h-821v1462h821v-176h-616v-435h579v-174h-579v-500h616v-177zM733 1929q26 -45 71.5 -101.5t95.5 -110t88 -92.5v-23h-139q-54 34 -112.5 83.5t-112.5 104.5q-54 -55 -111 -103.5t-111 -84.5h-136v23q38 40 86.5 93.5t93.5 109.5t72 101h215z" />
    <glyph glyph-name="Edieresis" unicode="&#xcb;" horiz-adv-x="1140" 
d="M1017 0h-821v1462h821v-176h-616v-435h579v-174h-579v-500h616v-177zM325 1758q0 55 30 80.5t73 25.5t73.5 -25.5t30.5 -80.5q0 -54 -30.5 -80.5t-73.5 -26.5t-73 26.5t-30 80.5zM714 1758q0 55 29.5 80.5t72.5 25.5t74 -25.5t31 -80.5q0 -54 -31 -80.5t-74 -26.5
t-72.5 26.5t-29.5 80.5z" />
    <glyph glyph-name="Igrave" unicode="&#xcc;" horiz-adv-x="599" 
d="M196 0v1462h205v-1462h-205zM202 1930q26 -46 63 -102.5t77.5 -109.5t73.5 -91v-25h-135q-37 29 -82 69t-90 84.5t-82 85t-59 69.5v20h234z" />
    <glyph glyph-name="Iacute" unicode="&#xcd;" horiz-adv-x="599" 
d="M196 0v1462h205v-1462h-205zM632 1930v-20q-22 -29 -59.5 -69.5t-82.5 -85t-90 -84.5t-82 -69h-134v25q32 38 71.5 91t77.5 109.5t63 102.5h236z" />
    <glyph glyph-name="Icircumflex" unicode="&#xce;" horiz-adv-x="599" 
d="M196 0v1462h205v-1462h-205zM406 1929q26 -45 71.5 -101.5t95.5 -110t88 -92.5v-23h-139q-54 34 -112.5 83.5t-112.5 104.5q-54 -55 -111 -103.5t-111 -84.5h-136v23q38 40 86.5 93.5t93.5 109.5t72 101h215z" />
    <glyph glyph-name="Idieresis" unicode="&#xcf;" horiz-adv-x="599" 
d="M196 0v1462h205v-1462h-205zM3 1758q0 55 30 80.5t73 25.5t73.5 -25.5t30.5 -80.5q0 -54 -30.5 -80.5t-73.5 -26.5t-73 26.5t-30 80.5zM392 1758q0 55 29.5 80.5t72.5 25.5t74 -25.5t31 -80.5q0 -54 -31 -80.5t-74 -26.5t-72.5 26.5t-29.5 80.5z" />
    <glyph glyph-name="Eth" unicode="&#xd0;" horiz-adv-x="1494" 
d="M642 1462q224 0 387 -81.5t252 -241t89 -394.5q0 -247 -91 -412.5t-264 -249t-419 -83.5h-390v636h-151v175h151v651h436zM626 1290h-216v-479h338v-175h-338v-462h179q283 0 424.5 142t141.5 423q0 188 -61.5 310t-179.5 181.5t-288 59.5z" />
    <glyph glyph-name="Ntilde" unicode="&#xd1;" horiz-adv-x="1573" 
d="M1378 0h-246l-757 1198h-8q3 -54 7 -118.5t6.5 -135t3.5 -142.5v-802h-188v1462h244l754 -1192h7q-2 44 -5 109t-5.5 137.5t-2.5 137.5v808h190v-1462zM403 1604q6 65 24.5 115t49 84t71 51.5t88.5 17.5q45 0 86.5 -17.5t79.5 -40.5t74 -40.5t70 -17.5q43 0 70 28.5
t41 89.5h111q-13 -127 -74.5 -198t-158.5 -71q-44 0 -84.5 18t-78.5 40.5t-74.5 40.5t-72.5 18q-44 0 -70.5 -28.5t-40.5 -89.5h-111z" />
    <glyph glyph-name="Ograve" unicode="&#xd2;" horiz-adv-x="1602" 
d="M1479 733q0 -169 -43 -307.5t-127.5 -238t-211 -153.5t-295.5 -54q-172 0 -299.5 54t-211.5 154t-125.5 239t-41.5 308q0 225 74 394t225.5 262.5t381.5 93.5q222 0 372 -93t226 -261.5t76 -397.5zM339 733q0 -178 49.5 -307.5t152 -200t261.5 -70.5q161 0 263 70.5
t150 200t48 307.5q0 270 -110 422.5t-348 152.5q-160 0 -263 -69.5t-153 -198t-50 -307.5zM739 1930q26 -46 63 -102.5t77.5 -109.5t73.5 -91v-25h-135q-37 29 -82 69t-90 84.5t-82 85t-59 69.5v20h234z" />
    <glyph glyph-name="Oacute" unicode="&#xd3;" horiz-adv-x="1602" 
d="M1479 733q0 -169 -43 -307.5t-127.5 -238t-211 -153.5t-295.5 -54q-172 0 -299.5 54t-211.5 154t-125.5 239t-41.5 308q0 225 74 394t225.5 262.5t381.5 93.5q222 0 372 -93t226 -261.5t76 -397.5zM339 733q0 -178 49.5 -307.5t152 -200t261.5 -70.5q161 0 263 70.5
t150 200t48 307.5q0 270 -110 422.5t-348 152.5q-160 0 -263 -69.5t-153 -198t-50 -307.5zM1117 1930v-20q-22 -29 -59.5 -69.5t-82.5 -85t-90 -84.5t-82 -69h-134v25q32 38 71.5 91t77.5 109.5t63 102.5h236z" />
    <glyph glyph-name="Ocircumflex" unicode="&#xd4;" horiz-adv-x="1602" 
d="M1479 733q0 -169 -43 -307.5t-127.5 -238t-211 -153.5t-295.5 -54q-172 0 -299.5 54t-211.5 154t-125.5 239t-41.5 308q0 225 74 394t225.5 262.5t381.5 93.5q222 0 372 -93t226 -261.5t76 -397.5zM339 733q0 -178 49.5 -307.5t152 -200t261.5 -70.5q161 0 263 70.5
t150 200t48 307.5q0 270 -110 422.5t-348 152.5q-160 0 -263 -69.5t-153 -198t-50 -307.5zM912 1929q26 -45 71.5 -101.5t95.5 -110t88 -92.5v-23h-139q-54 34 -112.5 83.5t-112.5 104.5q-54 -55 -111 -103.5t-111 -84.5h-136v23q38 40 86.5 93.5t93.5 109.5t72 101h215z
" />
    <glyph glyph-name="Otilde" unicode="&#xd5;" horiz-adv-x="1602" 
d="M1479 733q0 -169 -43 -307.5t-127.5 -238t-211 -153.5t-295.5 -54q-172 0 -299.5 54t-211.5 154t-125.5 239t-41.5 308q0 225 74 394t225.5 262.5t381.5 93.5q222 0 372 -93t226 -261.5t76 -397.5zM339 733q0 -178 49.5 -307.5t152 -200t261.5 -70.5q161 0 263 70.5
t150 200t48 307.5q0 270 -110 422.5t-348 152.5q-160 0 -263 -69.5t-153 -198t-50 -307.5zM415 1604q6 65 24.5 115t49 84t71 51.5t88.5 17.5q45 0 86.5 -17.5t79.5 -40.5t74 -40.5t70 -17.5q43 0 70 28.5t41 89.5h111q-13 -127 -74.5 -198t-158.5 -71q-44 0 -84.5 18
t-78.5 40.5t-74.5 40.5t-72.5 18q-44 0 -70.5 -28.5t-40.5 -89.5h-111z" />
    <glyph glyph-name="Odieresis" unicode="&#xd6;" horiz-adv-x="1602" 
d="M1479 733q0 -169 -43 -307.5t-127.5 -238t-211 -153.5t-295.5 -54q-172 0 -299.5 54t-211.5 154t-125.5 239t-41.5 308q0 225 74 394t225.5 262.5t381.5 93.5q222 0 372 -93t226 -261.5t76 -397.5zM339 733q0 -178 49.5 -307.5t152 -200t261.5 -70.5q161 0 263 70.5
t150 200t48 307.5q0 270 -110 422.5t-348 152.5q-160 0 -263 -69.5t-153 -198t-50 -307.5zM503 1758q0 55 30 80.5t73 25.5t73.5 -25.5t30.5 -80.5q0 -54 -30.5 -80.5t-73.5 -26.5t-73 26.5t-30 80.5zM892 1758q0 55 29.5 80.5t72.5 25.5t74 -25.5t31 -80.5q0 -54 -31 -80.5
t-74 -26.5t-72.5 26.5t-29.5 80.5z" />
    <glyph glyph-name="multiply" unicode="&#xd7;" horiz-adv-x="1171" 
d="M927 1175l109 -110l-342 -342l340 -341l-109 -111l-343 339l-337 -338l-112 110l339 341l-340 339l112 113l340 -342z" />
    <glyph glyph-name="Oslash" unicode="&#xd8;" horiz-adv-x="1602" 
d="M1479 733q0 -169 -43 -307.5t-127.5 -238t-211 -153.5t-295.5 -54q-113 0 -206 23.5t-166 69.5l-99 -142l-127 84l105 151q-94 100 -139.5 244.5t-45.5 324.5q0 225 74 394t225.5 262.5t381.5 93.5q106 0 197 -23.5t165 -66.5l95 135l126 -85l-102 -144q95 -98 144 -242
t49 -326zM1263 733q0 123 -24 223t-72 172l-629 -899q51 -35 117 -54.5t147 -19.5q161 0 263 70.5t150 200t48 307.5zM339 733q0 -120 23 -218.5t69 -171.5l629 895q-50 34 -113.5 52t-141.5 18q-160 0 -263 -69.5t-153 -198t-50 -307.5z" />
    <glyph glyph-name="Ugrave" unicode="&#xd9;" horiz-adv-x="1507" 
d="M1323 1462v-946q0 -154 -63.5 -275t-191.5 -191t-322 -70q-275 0 -419.5 147.5t-144.5 392.5v942h206v-934q0 -185 92.5 -279t275.5 -94q126 0 206 45.5t118.5 129t38.5 198.5v934h204zM691 1930q26 -46 63 -102.5t77.5 -109.5t73.5 -91v-25h-135q-37 29 -82 69t-90 84.5
t-82 85t-59 69.5v20h234z" />
    <glyph glyph-name="Uacute" unicode="&#xda;" horiz-adv-x="1507" 
d="M1323 1462v-946q0 -154 -63.5 -275t-191.5 -191t-322 -70q-275 0 -419.5 147.5t-144.5 392.5v942h206v-934q0 -185 92.5 -279t275.5 -94q126 0 206 45.5t118.5 129t38.5 198.5v934h204zM1070 1930v-20q-22 -29 -59.5 -69.5t-82.5 -85t-90 -84.5t-82 -69h-134v25
q32 38 71.5 91t77.5 109.5t63 102.5h236z" />
    <glyph glyph-name="Ucircumflex" unicode="&#xdb;" horiz-adv-x="1507" 
d="M1323 1462v-946q0 -154 -63.5 -275t-191.5 -191t-322 -70q-275 0 -419.5 147.5t-144.5 392.5v942h206v-934q0 -185 92.5 -279t275.5 -94q126 0 206 45.5t118.5 129t38.5 198.5v934h204zM864 1929q26 -45 71.5 -101.5t95.5 -110t88 -92.5v-23h-139q-54 34 -112.5 83.5
t-112.5 104.5q-54 -55 -111 -103.5t-111 -84.5h-136v23q38 40 86.5 93.5t93.5 109.5t72 101h215z" />
    <glyph glyph-name="Udieresis" unicode="&#xdc;" horiz-adv-x="1507" 
d="M1323 1462v-946q0 -154 -63.5 -275t-191.5 -191t-322 -70q-275 0 -419.5 147.5t-144.5 392.5v942h206v-934q0 -185 92.5 -279t275.5 -94q126 0 206 45.5t118.5 129t38.5 198.5v934h204zM456 1758q0 55 30 80.5t73 25.5t73.5 -25.5t30.5 -80.5q0 -54 -30.5 -80.5
t-73.5 -26.5t-73 26.5t-30 80.5zM845 1758q0 55 29.5 80.5t72.5 25.5t74 -25.5t31 -80.5q0 -54 -31 -80.5t-74 -26.5t-72.5 26.5t-29.5 80.5z" />
    <glyph glyph-name="Yacute" unicode="&#xdd;" horiz-adv-x="1178" 
d="M590 762l368 700h220l-486 -894v-568h-205v559l-487 903h224zM905 1930v-20q-22 -29 -59.5 -69.5t-82.5 -85t-90 -84.5t-82 -69h-134v25q32 38 71.5 91t77.5 109.5t63 102.5h236z" />
    <glyph glyph-name="Thorn" unicode="&#xde;" horiz-adv-x="1246" 
d="M1144 779q0 -94 -29.5 -178t-96 -148.5t-176.5 -101.5t-271 -37h-170v-314h-205v1462h205v-249h201q285 0 413.5 -114.5t128.5 -319.5zM401 485h144q132 0 218 29t128.5 92t42.5 166q0 137 -84.5 203t-271.5 66h-177v-556z" />
    <glyph glyph-name="germandbls" unicode="&#xdf;" horiz-adv-x="1320" 
d="M1100 1261q0 -72 -29 -124t-71.5 -91.5t-85 -72t-71.5 -63t-29 -67.5q0 -30 16 -53t57 -53.5t115 -79.5q71 -46 122.5 -94.5t79.5 -107.5t28 -142q0 -112 -48.5 -186t-137.5 -110.5t-211 -36.5q-97 0 -169.5 17t-127.5 49v174q36 -21 83 -40.5t100 -31.5t105 -12
q107 0 156.5 45t49.5 123q0 49 -17.5 84.5t-59 71.5t-115.5 82q-83 52 -132 95.5t-70 87.5t-21 100q0 65 28 109.5t70 78t83.5 65.5t69.5 70t28 93q0 81 -70.5 121.5t-181.5 40.5q-75 0 -137 -21.5t-98.5 -71t-36.5 -135.5v-1175h-201v1178q0 139 62 224.5t168.5 125
t242.5 39.5t238 -34.5t160 -102.5t58 -169z" />
    <glyph glyph-name="agrave" unicode="&#xe0;" horiz-adv-x="1163" 
d="M593 1121q204 0 305 -90.5t101 -285.5v-745h-144l-39 160h-8q-46 -60 -96 -100t-115.5 -60t-159.5 -20q-100 0 -178 36t-122.5 108.5t-44.5 184.5q0 168 129 255t391 95l190 8v62q0 129 -57.5 182t-160.5 53q-85 0 -163 -24.5t-150 -58.5l-64 146q78 40 177.5 67
t208.5 27zM800 535l-154 -7q-191 -7 -268.5 -63.5t-77.5 -157.5q0 -88 53 -129t140 -41q134 0 220.5 75.5t86.5 223.5v99zM517 1569q26 -46 63 -102.5t77.5 -109.5t73.5 -91v-25h-135q-37 29 -82 69t-90 84.5t-82 85t-59 69.5v20h234z" />
    <glyph glyph-name="aacute" unicode="&#xe1;" horiz-adv-x="1163" 
d="M593 1121q204 0 305 -90.5t101 -285.5v-745h-144l-39 160h-8q-46 -60 -96 -100t-115.5 -60t-159.5 -20q-100 0 -178 36t-122.5 108.5t-44.5 184.5q0 168 129 255t391 95l190 8v62q0 129 -57.5 182t-160.5 53q-85 0 -163 -24.5t-150 -58.5l-64 146q78 40 177.5 67
t208.5 27zM800 535l-154 -7q-191 -7 -268.5 -63.5t-77.5 -157.5q0 -88 53 -129t140 -41q134 0 220.5 75.5t86.5 223.5v99zM897 1569v-20q-22 -29 -59.5 -69.5t-82.5 -85t-90 -84.5t-82 -69h-134v25q32 38 71.5 91t77.5 109.5t63 102.5h236z" />
    <glyph glyph-name="acircumflex" unicode="&#xe2;" horiz-adv-x="1163" 
d="M593 1121q204 0 305 -90.5t101 -285.5v-745h-144l-39 160h-8q-46 -60 -96 -100t-115.5 -60t-159.5 -20q-100 0 -178 36t-122.5 108.5t-44.5 184.5q0 168 129 255t391 95l190 8v62q0 129 -57.5 182t-160.5 53q-85 0 -163 -24.5t-150 -58.5l-64 146q78 40 177.5 67
t208.5 27zM800 535l-154 -7q-191 -7 -268.5 -63.5t-77.5 -157.5q0 -88 53 -129t140 -41q134 0 220.5 75.5t86.5 223.5v99zM691 1568q26 -45 71.5 -101.5t95.5 -110t88 -92.5v-23h-139q-54 34 -112.5 83.5t-112.5 104.5q-54 -55 -111 -103.5t-111 -84.5h-136v23
q38 40 86.5 93.5t93.5 109.5t72 101h215z" />
    <glyph glyph-name="atilde" unicode="&#xe3;" horiz-adv-x="1163" 
d="M593 1121q204 0 305 -90.5t101 -285.5v-745h-144l-39 160h-8q-46 -60 -96 -100t-115.5 -60t-159.5 -20q-100 0 -178 36t-122.5 108.5t-44.5 184.5q0 168 129 255t391 95l190 8v62q0 129 -57.5 182t-160.5 53q-85 0 -163 -24.5t-150 -58.5l-64 146q78 40 177.5 67
t208.5 27zM800 535l-154 -7q-191 -7 -268.5 -63.5t-77.5 -157.5q0 -88 53 -129t140 -41q134 0 220.5 75.5t86.5 223.5v99zM194 1243q6 65 24.5 115t49 84t71 51.5t88.5 17.5q45 0 86.5 -17.5t79.5 -40.5t74 -40.5t70 -17.5q43 0 70 28.5t41 89.5h111q-13 -127 -74.5 -198
t-158.5 -71q-44 0 -84.5 18t-78.5 40.5t-74.5 40.5t-72.5 18q-44 0 -70.5 -28.5t-40.5 -89.5h-111z" />
    <glyph glyph-name="adieresis" unicode="&#xe4;" horiz-adv-x="1163" 
d="M593 1121q204 0 305 -90.5t101 -285.5v-745h-144l-39 160h-8q-46 -60 -96 -100t-115.5 -60t-159.5 -20q-100 0 -178 36t-122.5 108.5t-44.5 184.5q0 168 129 255t391 95l190 8v62q0 129 -57.5 182t-160.5 53q-85 0 -163 -24.5t-150 -58.5l-64 146q78 40 177.5 67
t208.5 27zM800 535l-154 -7q-191 -7 -268.5 -63.5t-77.5 -157.5q0 -88 53 -129t140 -41q134 0 220.5 75.5t86.5 223.5v99zM283 1397q0 55 30 80.5t73 25.5t73.5 -25.5t30.5 -80.5q0 -54 -30.5 -80.5t-73.5 -26.5t-73 26.5t-30 80.5zM672 1397q0 55 29.5 80.5t72.5 25.5
t74 -25.5t31 -80.5q0 -54 -31 -80.5t-74 -26.5t-72.5 26.5t-29.5 80.5z" />
    <glyph glyph-name="aring" unicode="&#xe5;" horiz-adv-x="1163" 
d="M593 1121q204 0 305 -90.5t101 -285.5v-745h-144l-39 160h-8q-46 -60 -96 -100t-115.5 -60t-159.5 -20q-100 0 -178 36t-122.5 108.5t-44.5 184.5q0 168 129 255t391 95l190 8v62q0 129 -57.5 182t-160.5 53q-85 0 -163 -24.5t-150 -58.5l-64 146q78 40 177.5 67
t208.5 27zM800 535l-154 -7q-191 -7 -268.5 -63.5t-77.5 -157.5q0 -88 53 -129t140 -41q134 0 220.5 75.5t86.5 223.5v99zM582 1241q-101 0 -164.5 59t-63.5 163q0 102 63.5 161t164.5 59q98 0 165 -58.5t67 -159.5q0 -105 -66.5 -164.5t-165.5 -59.5zM582 1349
q50 0 82 30.5t32 83.5q0 52 -33 82.5t-81 30.5t-81 -30.5t-33 -82.5q0 -53 29.5 -83.5t84.5 -30.5z" />
    <glyph glyph-name="ae" unicode="&#xe6;" horiz-adv-x="1794" 
d="M1255 1122q135 0 233.5 -61.5t151.5 -173t53 -261.5v-116h-713q4 -184 84.5 -275.5t229.5 -91.5q101 0 182 20t165 59v-169q-83 -38 -164.5 -55.5t-190.5 -17.5q-94 0 -174 26.5t-142 78t-104 127.5q-49 -73 -105.5 -125t-133 -79.5t-186.5 -27.5q-99 0 -178 36
t-125 108.5t-46 184.5t55 187.5t165.5 116.5t276.5 46l187 8v74q0 122 -58.5 172.5t-158.5 50.5q-81 0 -158.5 -23.5t-148.5 -58.5l-64 145q77 41 179 67.5t206 26.5q125 0 208.5 -42t126.5 -134q57 84 143.5 130.5t203.5 46.5zM773 535l-146 -7q-180 -7 -253.5 -63.5
t-73.5 -157.5q0 -88 50.5 -129t134.5 -41q83 0 148 33.5t102.5 100t37.5 165.5v99zM1252 966q-117 0 -187 -78t-80 -229h504q0 91 -25.5 160.5t-78.5 108t-133 38.5z" />
    <glyph glyph-name="ccedilla" unicode="&#xe7;" horiz-adv-x="999" 
d="M614 -20q-152 0 -266 61t-176.5 186.5t-62.5 317.5q0 200 67 327.5t185.5 188.5t271.5 61q90 0 168.5 -18t131.5 -45l-60 -163q-56 22 -120.5 39t-122.5 17q-106 0 -175.5 -46.5t-104.5 -136.5t-35 -222q0 -128 34.5 -216.5t102 -134.5t168.5 -46q89 0 160 20t131 51
v-177q-58 -32 -128 -48t-169 -16zM792 -277q0 -101 -73 -158t-226 -57q-34 0 -64 4t-50 10v120q21 -4 54 -8t63 -4q64 0 99.5 19.5t35.5 67.5q0 51 -49.5 77t-134.5 36l86 170h131l-47 -99q48 -11 87.5 -33t63.5 -57.5t24 -87.5z" />
    <glyph glyph-name="egrave" unicode="&#xe8;" horiz-adv-x="1165" 
d="M603 1122q144 0 247 -61.5t158 -173.5t55 -264v-114h-748q3 -177 91 -271.5t247 -94.5q105 0 187 20t170 59v-169q-83 -38 -166.5 -55.5t-199.5 -17.5q-160 0 -280.5 64t-187.5 189.5t-67 309.5q0 182 61 311.5t172 198.5t261 69zM602 966q-122 0 -196 -79.5t-87 -227.5
h542q-1 91 -29 160t-84.5 108t-145.5 39zM525 1569q26 -46 63 -102.5t77.5 -109.5t73.5 -91v-25h-135q-37 29 -82 69t-90 84.5t-82 85t-59 69.5v20h234z" />
    <glyph glyph-name="eacute" unicode="&#xe9;" horiz-adv-x="1165" 
d="M603 1122q144 0 247 -61.5t158 -173.5t55 -264v-114h-748q3 -177 91 -271.5t247 -94.5q105 0 187 20t170 59v-169q-83 -38 -166.5 -55.5t-199.5 -17.5q-160 0 -280.5 64t-187.5 189.5t-67 309.5q0 182 61 311.5t172 198.5t261 69zM602 966q-122 0 -196 -79.5t-87 -227.5
h542q-1 91 -29 160t-84.5 108t-145.5 39zM904 1569v-20q-22 -29 -59.5 -69.5t-82.5 -85t-90 -84.5t-82 -69h-134v25q32 38 71.5 91t77.5 109.5t63 102.5h236z" />
    <glyph glyph-name="ecircumflex" unicode="&#xea;" horiz-adv-x="1165" 
d="M603 1122q144 0 247 -61.5t158 -173.5t55 -264v-114h-748q3 -177 91 -271.5t247 -94.5q105 0 187 20t170 59v-169q-83 -38 -166.5 -55.5t-199.5 -17.5q-160 0 -280.5 64t-187.5 189.5t-67 309.5q0 182 61 311.5t172 198.5t261 69zM602 966q-122 0 -196 -79.5t-87 -227.5
h542q-1 91 -29 160t-84.5 108t-145.5 39zM698 1568q26 -45 71.5 -101.5t95.5 -110t88 -92.5v-23h-139q-54 34 -112.5 83.5t-112.5 104.5q-54 -55 -111 -103.5t-111 -84.5h-136v23q38 40 86.5 93.5t93.5 109.5t72 101h215z" />
    <glyph glyph-name="edieresis" unicode="&#xeb;" horiz-adv-x="1165" 
d="M603 1122q144 0 247 -61.5t158 -173.5t55 -264v-114h-748q3 -177 91 -271.5t247 -94.5q105 0 187 20t170 59v-169q-83 -38 -166.5 -55.5t-199.5 -17.5q-160 0 -280.5 64t-187.5 189.5t-67 309.5q0 182 61 311.5t172 198.5t261 69zM602 966q-122 0 -196 -79.5t-87 -227.5
h542q-1 91 -29 160t-84.5 108t-145.5 39zM291 1397q0 55 30 80.5t73 25.5t73.5 -25.5t30.5 -80.5q0 -54 -30.5 -80.5t-73.5 -26.5t-73 26.5t-30 80.5zM680 1397q0 55 29.5 80.5t72.5 25.5t74 -25.5t31 -80.5q0 -54 -31 -80.5t-74 -26.5t-72.5 26.5t-29.5 80.5z" />
    <glyph glyph-name="igrave" unicode="&#xec;" horiz-adv-x="544" 
d="M372 0h-201v1102h201v-1102zM209 1569q26 -46 63 -102.5t77.5 -109.5t73.5 -91v-25h-135q-37 29 -82 69t-90 84.5t-82 85t-59 69.5v20h234z" />
    <glyph glyph-name="iacute" unicode="&#xed;" horiz-adv-x="544" 
d="M372 0h-201v1102h201v-1102zM588 1569v-20q-22 -29 -59.5 -69.5t-82.5 -85t-90 -84.5t-82 -69h-134v25q32 38 71.5 91t77.5 109.5t63 102.5h236z" />
    <glyph glyph-name="icircumflex" unicode="&#xee;" horiz-adv-x="544" 
d="M372 0h-201v1102h201v-1102zM381 1568q26 -45 71.5 -101.5t95.5 -110t88 -92.5v-23h-139q-54 34 -112.5 83.5t-112.5 104.5q-54 -55 -111 -103.5t-111 -84.5h-136v23q38 40 86.5 93.5t93.5 109.5t72 101h215z" />
    <glyph glyph-name="idieresis" unicode="&#xef;" horiz-adv-x="544" 
d="M372 0h-201v1102h201v-1102zM-26 1397q0 55 30 80.5t73 25.5t73.5 -25.5t30.5 -80.5q0 -54 -30.5 -80.5t-73.5 -26.5t-73 26.5t-30 80.5zM363 1397q0 55 29.5 80.5t72.5 25.5t74 -25.5t31 -80.5q0 -54 -31 -80.5t-74 -26.5t-72.5 26.5t-29.5 80.5z" />
    <glyph glyph-name="eth" unicode="&#xf0;" horiz-adv-x="1238" 
d="M444 1566q69 -32 134 -68.5t123 -78.5l232 138l79 -115l-195 -115q96 -90 166.5 -204.5t108.5 -254t38 -303.5q0 -190 -61.5 -320.5t-177 -197.5t-276.5 -67q-148 0 -263 60t-179.5 172t-64.5 267t59.5 265.5t167.5 170t252 59.5q73 0 132 -13t104.5 -38.5t74.5 -64.5
l9 3q-32 112 -95 206t-146 170l-258 -151l-78 117l217 126q-41 28 -86.5 55.5t-92.5 51.5zM621 817q-107 0 -175.5 -39.5t-101 -116t-32.5 -187.5q0 -99 33 -175t100.5 -118.5t173.5 -42.5q159 0 233 98.5t74 288.5q0 58 -18 110t-55 93t-94.5 65t-137.5 24z" />
    <glyph glyph-name="ntilde" unicode="&#xf1;" horiz-adv-x="1279" 
d="M719 1122q191 0 293.5 -96t102.5 -308v-718h-199v691q0 132 -58 198.5t-178 66.5q-171 0 -239.5 -101t-68.5 -293v-562h-201v1102h159l29 -155h11q35 58 89 97t120.5 58.5t139.5 19.5zM255 1243q6 65 24.5 115t49 84t71 51.5t88.5 17.5q45 0 86.5 -17.5t79.5 -40.5
t74 -40.5t70 -17.5q43 0 70 28.5t41 89.5h111q-13 -127 -74.5 -198t-158.5 -71q-44 0 -84.5 18t-78.5 40.5t-74.5 40.5t-72.5 18q-44 0 -70.5 -28.5t-40.5 -89.5h-111z" />
    <glyph glyph-name="ograve" unicode="&#xf2;" horiz-adv-x="1241" 
d="M1134 553q0 -136 -35.5 -242.5t-103 -180t-162.5 -112t-215 -38.5q-112 0 -205.5 38.5t-161.5 112t-105 180t-37 242.5q0 181 62 308.5t177.5 194t275.5 66.5q152 0 267 -67t179 -194t64 -308zM315 553q0 -127 32.5 -218.5t100 -140.5t174.5 -49q105 0 173 49t100 140.5
t32 218.5q0 126 -32 216t-99.5 138t-175.5 48q-158 0 -231.5 -105.5t-73.5 -296.5zM558 1569q26 -46 63 -102.5t77.5 -109.5t73.5 -91v-25h-135q-37 29 -82 69t-90 84.5t-82 85t-59 69.5v20h234z" />
    <glyph glyph-name="oacute" unicode="&#xf3;" horiz-adv-x="1241" 
d="M1134 553q0 -136 -35.5 -242.5t-103 -180t-162.5 -112t-215 -38.5q-112 0 -205.5 38.5t-161.5 112t-105 180t-37 242.5q0 181 62 308.5t177.5 194t275.5 66.5q152 0 267 -67t179 -194t64 -308zM315 553q0 -127 32.5 -218.5t100 -140.5t174.5 -49q105 0 173 49t100 140.5
t32 218.5q0 126 -32 216t-99.5 138t-175.5 48q-158 0 -231.5 -105.5t-73.5 -296.5zM937 1569v-20q-22 -29 -59.5 -69.5t-82.5 -85t-90 -84.5t-82 -69h-134v25q32 38 71.5 91t77.5 109.5t63 102.5h236z" />
    <glyph glyph-name="ocircumflex" unicode="&#xf4;" horiz-adv-x="1241" 
d="M1134 553q0 -136 -35.5 -242.5t-103 -180t-162.5 -112t-215 -38.5q-112 0 -205.5 38.5t-161.5 112t-105 180t-37 242.5q0 181 62 308.5t177.5 194t275.5 66.5q152 0 267 -67t179 -194t64 -308zM315 553q0 -127 32.5 -218.5t100 -140.5t174.5 -49q105 0 173 49t100 140.5
t32 218.5q0 126 -32 216t-99.5 138t-175.5 48q-158 0 -231.5 -105.5t-73.5 -296.5zM731 1568q26 -45 71.5 -101.5t95.5 -110t88 -92.5v-23h-139q-54 34 -112.5 83.5t-112.5 104.5q-54 -55 -111 -103.5t-111 -84.5h-136v23q38 40 86.5 93.5t93.5 109.5t72 101h215z" />
    <glyph glyph-name="otilde" unicode="&#xf5;" horiz-adv-x="1241" 
d="M1134 553q0 -136 -35.5 -242.5t-103 -180t-162.5 -112t-215 -38.5q-112 0 -205.5 38.5t-161.5 112t-105 180t-37 242.5q0 181 62 308.5t177.5 194t275.5 66.5q152 0 267 -67t179 -194t64 -308zM315 553q0 -127 32.5 -218.5t100 -140.5t174.5 -49q105 0 173 49t100 140.5
t32 218.5q0 126 -32 216t-99.5 138t-175.5 48q-158 0 -231.5 -105.5t-73.5 -296.5zM235 1243q6 65 24.5 115t49 84t71 51.5t88.5 17.5q45 0 86.5 -17.5t79.5 -40.5t74 -40.5t70 -17.5q43 0 70 28.5t41 89.5h111q-13 -127 -74.5 -198t-158.5 -71q-44 0 -84.5 18t-78.5 40.5
t-74.5 40.5t-72.5 18q-44 0 -70.5 -28.5t-40.5 -89.5h-111z" />
    <glyph glyph-name="odieresis" unicode="&#xf6;" horiz-adv-x="1241" 
d="M1134 553q0 -136 -35.5 -242.5t-103 -180t-162.5 -112t-215 -38.5q-112 0 -205.5 38.5t-161.5 112t-105 180t-37 242.5q0 181 62 308.5t177.5 194t275.5 66.5q152 0 267 -67t179 -194t64 -308zM315 553q0 -127 32.5 -218.5t100 -140.5t174.5 -49q105 0 173 49t100 140.5
t32 218.5q0 126 -32 216t-99.5 138t-175.5 48q-158 0 -231.5 -105.5t-73.5 -296.5zM323 1397q0 55 30 80.5t73 25.5t73.5 -25.5t30.5 -80.5q0 -54 -30.5 -80.5t-73.5 -26.5t-73 26.5t-30 80.5zM712 1397q0 55 29.5 80.5t72.5 25.5t74 -25.5t31 -80.5q0 -54 -31 -80.5
t-74 -26.5t-72.5 26.5t-29.5 80.5z" />
    <glyph glyph-name="divide" unicode="&#xf7;" horiz-adv-x="1171" 
d="M99 644v156h971v-156h-971zM584 245q-49 0 -82.5 30.5t-33.5 96.5q0 69 33.5 97t82.5 28q47 0 80.5 -28t33.5 -97q0 -66 -33.5 -96.5t-80.5 -30.5zM584 946q-49 0 -82.5 30.5t-33.5 96.5q0 69 33.5 97t82.5 28q47 0 80.5 -28t33.5 -97q0 -66 -33.5 -96.5t-80.5 -30.5z
" />
    <glyph glyph-name="oslash" unicode="&#xf8;" horiz-adv-x="1241" 
d="M1134 553q0 -182 -62.5 -310t-178.5 -195.5t-275 -67.5q-76 0 -141 17t-121 50l-83 -116l-120 82l90 124q-64 75 -99 179t-35 237q0 272 138 420.5t377 148.5q76 0 143.5 -18.5t122.5 -53.5l78 110l122 -82l-87 -120q62 -73 96.5 -174.5t34.5 -230.5zM315 553
q0 -74 11 -135.5t34 -109.5l430 599q-33 23 -75.5 35.5t-94.5 12.5q-158 0 -231.5 -105.5t-73.5 -296.5zM927 553q0 69 -10.5 128t-31.5 105l-428 -596q31 -22 73 -33.5t92 -11.5q105 0 173 49t100 140.5t32 218.5z" />
    <glyph glyph-name="ugrave" unicode="&#xf9;" horiz-adv-x="1279" 
d="M1107 1102v-1102h-161l-28 151h-11q-34 -57 -88 -95t-121 -57t-142 -19q-127 0 -215.5 42t-134 130.5t-45.5 228.5v721h202v-693q0 -133 57.5 -199t175.5 -66q115 0 182.5 45.5t97 133t29.5 214.5v565h202zM576 1569q26 -46 63 -102.5t77.5 -109.5t73.5 -91v-25h-135
q-37 29 -82 69t-90 84.5t-82 85t-59 69.5v20h234z" />
    <glyph glyph-name="uacute" unicode="&#xfa;" horiz-adv-x="1279" 
d="M1107 1102v-1102h-161l-28 151h-11q-34 -57 -88 -95t-121 -57t-142 -19q-127 0 -215.5 42t-134 130.5t-45.5 228.5v721h202v-693q0 -133 57.5 -199t175.5 -66q115 0 182.5 45.5t97 133t29.5 214.5v565h202zM955 1569v-20q-22 -29 -59.5 -69.5t-82.5 -85t-90 -84.5
t-82 -69h-134v25q32 38 71.5 91t77.5 109.5t63 102.5h236z" />
    <glyph glyph-name="ucircumflex" unicode="&#xfb;" horiz-adv-x="1279" 
d="M1107 1102v-1102h-161l-28 151h-11q-34 -57 -88 -95t-121 -57t-142 -19q-127 0 -215.5 42t-134 130.5t-45.5 228.5v721h202v-693q0 -133 57.5 -199t175.5 -66q115 0 182.5 45.5t97 133t29.5 214.5v565h202zM749 1568q26 -45 71.5 -101.5t95.5 -110t88 -92.5v-23h-139
q-54 34 -112.5 83.5t-112.5 104.5q-54 -55 -111 -103.5t-111 -84.5h-136v23q38 40 86.5 93.5t93.5 109.5t72 101h215z" />
    <glyph glyph-name="udieresis" unicode="&#xfc;" horiz-adv-x="1279" 
d="M1107 1102v-1102h-161l-28 151h-11q-34 -57 -88 -95t-121 -57t-142 -19q-127 0 -215.5 42t-134 130.5t-45.5 228.5v721h202v-693q0 -133 57.5 -199t175.5 -66q115 0 182.5 45.5t97 133t29.5 214.5v565h202zM341 1397q0 55 30 80.5t73 25.5t73.5 -25.5t30.5 -80.5
q0 -54 -30.5 -80.5t-73.5 -26.5t-73 26.5t-30 80.5zM730 1397q0 55 29.5 80.5t72.5 25.5t74 -25.5t31 -80.5q0 -54 -31 -80.5t-74 -26.5t-72.5 26.5t-29.5 80.5z" />
    <glyph glyph-name="yacute" unicode="&#xfd;" horiz-adv-x="1061" 
d="M2 1102h217l234 -635q18 -49 33.5 -95.5t27 -90t18.5 -85.5h7q12 51 34 124t48 148l224 634h216l-476 -1258q-39 -105 -94.5 -180.5t-131.5 -116t-180 -40.5q-48 0 -84.5 5.5t-62.5 12.5v160q22 -5 53.5 -9t65.5 -4q63 0 108.5 24.5t78 69.5t54.5 105l50 130zM846 1569
v-20q-22 -29 -59.5 -69.5t-82.5 -85t-90 -84.5t-82 -69h-134v25q32 38 71.5 91t77.5 109.5t63 102.5h236z" />
    <glyph glyph-name="thorn" unicode="&#xfe;" horiz-adv-x="1264" 
d="M1155 554q0 -188 -55 -315.5t-154.5 -193t-233.5 -65.5q-86 0 -151 22t-111 58.5t-77 81.5h-13q3 -19 6 -52t5 -67t2 -57v-456h-202v2046h202v-443q0 -36 -2.5 -86.5t-5.5 -80.5h9q31 48 76.5 88t110.5 64t152 24q201 0 321.5 -144t120.5 -424zM949 556q0 200 -68.5 300
t-212.5 100q-159 0 -226 -92.5t-69 -275.5v-35q0 -197 65 -302.5t231 -105.5q95 0 157 48t92.5 139.5t30.5 223.5z" />
    <glyph glyph-name="ydieresis" unicode="&#xff;" horiz-adv-x="1061" 
d="M2 1102h217l234 -635q18 -49 33.5 -95.5t27 -90t18.5 -85.5h7q12 51 34 124t48 148l224 634h216l-476 -1258q-39 -105 -94.5 -180.5t-131.5 -116t-180 -40.5q-48 0 -84.5 5.5t-62.5 12.5v160q22 -5 53.5 -9t65.5 -4q63 0 108.5 24.5t78 69.5t54.5 105l50 130zM232 1397
q0 55 30 80.5t73 25.5t73.5 -25.5t30.5 -80.5q0 -54 -30.5 -80.5t-73.5 -26.5t-73 26.5t-30 80.5zM621 1397q0 55 29.5 80.5t72.5 25.5t74 -25.5t31 -80.5q0 -54 -31 -80.5t-74 -26.5t-72.5 26.5t-29.5 80.5z" />
    <glyph glyph-name="Amacron" unicode="&#x100;" horiz-adv-x="1325" 
d="M1108 0l-162 435h-573l-160 -435h-213l558 1468h210l555 -1468h-215zM889 613l-154 431q-7 22 -21.5 66t-29 91t-23.5 78q-10 -41 -23 -86.5t-25.5 -85t-20.5 -63.5l-156 -431h453zM970 1757v-153h-619v153h619z" />
    <glyph glyph-name="amacron" unicode="&#x101;" horiz-adv-x="1163" 
d="M593 1121q204 0 305 -90.5t101 -285.5v-745h-144l-39 160h-8q-46 -60 -96 -100t-115.5 -60t-159.5 -20q-100 0 -178 36t-122.5 108.5t-44.5 184.5q0 168 129 255t391 95l190 8v62q0 129 -57.5 182t-160.5 53q-85 0 -163 -24.5t-150 -58.5l-64 146q78 40 177.5 67
t208.5 27zM800 535l-154 -7q-191 -7 -268.5 -63.5t-77.5 -157.5q0 -88 53 -129t140 -41q134 0 220.5 75.5t86.5 223.5v99zM890 1396v-153h-619v153h619z" />
    <glyph glyph-name="Abreve" unicode="&#x102;" horiz-adv-x="1325" 
d="M1108 0l-162 435h-573l-160 -435h-213l558 1468h210l555 -1468h-215zM889 613l-154 431q-7 22 -21.5 66t-29 91t-23.5 78q-10 -41 -23 -86.5t-25.5 -85t-20.5 -63.5l-156 -431h453zM1000 1889q-7 -85 -48.5 -149.5t-114.5 -101t-173 -36.5q-154 0 -236.5 78t-90.5 209
h121q5 -56 31.5 -84.5t71.5 -38t106 -9.5q54 0 99 10.5t74.5 39.5t36.5 82h123z" />
    <glyph glyph-name="abreve" unicode="&#x103;" horiz-adv-x="1163" 
d="M593 1121q204 0 305 -90.5t101 -285.5v-745h-144l-39 160h-8q-46 -60 -96 -100t-115.5 -60t-159.5 -20q-100 0 -178 36t-122.5 108.5t-44.5 184.5q0 168 129 255t391 95l190 8v62q0 129 -57.5 182t-160.5 53q-85 0 -163 -24.5t-150 -58.5l-64 146q78 40 177.5 67
t208.5 27zM800 535l-154 -7q-191 -7 -268.5 -63.5t-77.5 -157.5q0 -88 53 -129t140 -41q134 0 220.5 75.5t86.5 223.5v99zM920 1528q-7 -85 -48.5 -149.5t-114.5 -101t-173 -36.5q-154 0 -236.5 78t-90.5 209h121q5 -56 31.5 -84.5t71.5 -38t106 -9.5q54 0 99 10.5
t74.5 39.5t36.5 82h123z" />
    <glyph glyph-name="Aogonek" unicode="&#x104;" horiz-adv-x="1325" 
d="M1108 0l-162 435h-573l-160 -435h-213l558 1468h210l555 -1468h-215zM889 613l-154 431q-7 22 -21.5 66t-29 91t-23.5 78q-10 -41 -23 -86.5t-25.5 -85t-20.5 -63.5l-156 -431h453zM1119 -237q0 -46 24 -69.5t68 -23.5q32 0 58 5t44 9v-125q-29 -8 -60 -13.5t-73 -5.5
q-107 0 -162 53.5t-55 146.5q0 58 29.5 112.5t75 100.5t94.5 78l102 -31q-70 -64 -107.5 -120t-37.5 -117z" />
    <glyph glyph-name="aogonek" unicode="&#x105;" horiz-adv-x="1163" 
d="M593 1121q204 0 305 -90.5t101 -285.5v-745h-144l-39 160h-8q-46 -60 -96 -100t-115.5 -60t-159.5 -20q-100 0 -178 36t-122.5 108.5t-44.5 184.5q0 168 129 255t391 95l190 8v62q0 129 -57.5 182t-160.5 53q-85 0 -163 -24.5t-150 -58.5l-64 146q78 40 177.5 67
t208.5 27zM800 535l-154 -7q-191 -7 -268.5 -63.5t-77.5 -157.5q0 -88 53 -129t140 -41q134 0 220.5 75.5t86.5 223.5v99zM849 -237q0 -46 24 -69.5t68 -23.5q32 0 58 5t44 9v-125q-29 -8 -60 -13.5t-73 -5.5q-107 0 -162 53.5t-55 146.5q0 58 29.5 112.5t75 100.5t94.5 78
l102 -31q-70 -64 -107.5 -120t-37.5 -117z" />
    <glyph glyph-name="Cacute" unicode="&#x106;" horiz-adv-x="1294" 
d="M820 1306q-113 0 -202.5 -39.5t-151.5 -115t-95 -181.5t-33 -239q0 -177 52.5 -306t158.5 -199t267 -70q96 0 183.5 17.5t174.5 45.5v-176q-84 -32 -173.5 -47.5t-209.5 -15.5q-224 0 -372.5 93t-221.5 261.5t-73 397.5q0 166 46 303.5t135 238t218.5 155t298.5 54.5
q110 0 214.5 -23.5t192.5 -65.5l-76 -171q-73 33 -156.5 58t-176.5 25zM1091 1930v-20q-22 -29 -59.5 -69.5t-82.5 -85t-90 -84.5t-82 -69h-134v25q32 38 71.5 91t77.5 109.5t63 102.5h236z" />
    <glyph glyph-name="cacute" unicode="&#x107;" horiz-adv-x="999" 
d="M614 -20q-152 0 -266 61t-176.5 186.5t-62.5 317.5q0 200 67 327.5t185.5 188.5t271.5 61q90 0 168.5 -18t131.5 -45l-60 -163q-56 22 -120.5 39t-122.5 17q-106 0 -175.5 -46.5t-104.5 -136.5t-35 -222q0 -128 34.5 -216.5t102 -134.5t168.5 -46q89 0 160 20t131 51
v-177q-58 -32 -128 -48t-169 -16zM899 1569v-20q-22 -29 -59.5 -69.5t-82.5 -85t-90 -84.5t-82 -69h-134v25q32 38 71.5 91t77.5 109.5t63 102.5h236z" />
    <glyph glyph-name="Ccircumflex" unicode="&#x108;" horiz-adv-x="1294" 
d="M820 1306q-113 0 -202.5 -39.5t-151.5 -115t-95 -181.5t-33 -239q0 -177 52.5 -306t158.5 -199t267 -70q96 0 183.5 17.5t174.5 45.5v-176q-84 -32 -173.5 -47.5t-209.5 -15.5q-224 0 -372.5 93t-221.5 261.5t-73 397.5q0 166 46 303.5t135 238t218.5 155t298.5 54.5
q110 0 214.5 -23.5t192.5 -65.5l-76 -171q-73 33 -156.5 58t-176.5 25zM884 1929q26 -45 71.5 -101.5t95.5 -110t88 -92.5v-23h-139q-54 34 -112.5 83.5t-112.5 104.5q-54 -55 -111 -103.5t-111 -84.5h-136v23q38 40 86.5 93.5t93.5 109.5t72 101h215z" />
    <glyph glyph-name="ccircumflex" unicode="&#x109;" horiz-adv-x="999" 
d="M614 -20q-152 0 -266 61t-176.5 186.5t-62.5 317.5q0 200 67 327.5t185.5 188.5t271.5 61q90 0 168.5 -18t131.5 -45l-60 -163q-56 22 -120.5 39t-122.5 17q-106 0 -175.5 -46.5t-104.5 -136.5t-35 -222q0 -128 34.5 -216.5t102 -134.5t168.5 -46q89 0 160 20t131 51
v-177q-58 -32 -128 -48t-169 -16zM693 1568q26 -45 71.5 -101.5t95.5 -110t88 -92.5v-23h-139q-54 34 -112.5 83.5t-112.5 104.5q-54 -55 -111 -103.5t-111 -84.5h-136v23q38 40 86.5 93.5t93.5 109.5t72 101h215z" />
    <glyph glyph-name="Cdot" unicode="&#x10a;" horiz-adv-x="1294" 
d="M820 1306q-113 0 -202.5 -39.5t-151.5 -115t-95 -181.5t-33 -239q0 -177 52.5 -306t158.5 -199t267 -70q96 0 183.5 17.5t174.5 45.5v-176q-84 -32 -173.5 -47.5t-209.5 -15.5q-224 0 -372.5 93t-221.5 261.5t-73 397.5q0 166 46 303.5t135 238t218.5 155t298.5 54.5
q110 0 214.5 -23.5t192.5 -65.5l-76 -171q-73 33 -156.5 58t-176.5 25zM780 1880q47 0 81.5 -28t34.5 -91t-34.5 -91.5t-81.5 -28.5q-50 0 -83.5 28.5t-33.5 91.5t33.5 91t83.5 28z" />
    <glyph glyph-name="cdot" unicode="&#x10b;" horiz-adv-x="999" 
d="M614 -20q-152 0 -266 61t-176.5 186.5t-62.5 317.5q0 200 67 327.5t185.5 188.5t271.5 61q90 0 168.5 -18t131.5 -45l-60 -163q-56 22 -120.5 39t-122.5 17q-106 0 -175.5 -46.5t-104.5 -136.5t-35 -222q0 -128 34.5 -216.5t102 -134.5t168.5 -46q89 0 160 20t131 51
v-177q-58 -32 -128 -48t-169 -16zM587 1519q47 0 81.5 -28t34.5 -91t-34.5 -91.5t-81.5 -28.5q-50 0 -83.5 28.5t-33.5 91.5t33.5 91t83.5 28z" />
    <glyph glyph-name="Ccaron" unicode="&#x10c;" horiz-adv-x="1294" 
d="M820 1306q-113 0 -202.5 -39.5t-151.5 -115t-95 -181.5t-33 -239q0 -177 52.5 -306t158.5 -199t267 -70q96 0 183.5 17.5t174.5 45.5v-176q-84 -32 -173.5 -47.5t-209.5 -15.5q-224 0 -372.5 93t-221.5 261.5t-73 397.5q0 166 46 303.5t135 238t218.5 155t298.5 54.5
q110 0 214.5 -23.5t192.5 -65.5l-76 -171q-73 33 -156.5 58t-176.5 25zM668 1602q-27 46 -72 101t-94 108.5t-86 92.5v25h136q54 -36 112.5 -85.5t109.5 -105.5q54 56 112.5 106t112.5 85h139v-25q-38 -39 -88 -92t-95.5 -108.5t-71.5 -101.5h-215z" />
    <glyph glyph-name="ccaron" unicode="&#x10d;" horiz-adv-x="999" 
d="M614 -20q-152 0 -266 61t-176.5 186.5t-62.5 317.5q0 200 67 327.5t185.5 188.5t271.5 61q90 0 168.5 -18t131.5 -45l-60 -163q-56 22 -120.5 39t-122.5 17q-106 0 -175.5 -46.5t-104.5 -136.5t-35 -222q0 -128 34.5 -216.5t102 -134.5t168.5 -46q89 0 160 20t131 51
v-177q-58 -32 -128 -48t-169 -16zM475 1241q-27 46 -72 101t-94 108.5t-86 92.5v25h136q54 -36 112.5 -85.5t109.5 -105.5q54 56 112.5 106t112.5 85h139v-25q-38 -39 -88 -92t-95.5 -108.5t-71.5 -101.5h-215z" />
    <glyph glyph-name="Dcaron" unicode="&#x10e;" horiz-adv-x="1494" 
d="M1370 745q0 -247 -91 -412.5t-263.5 -249t-418.5 -83.5h-401v1462h446q224 0 387 -81.5t252 -241t89 -394.5zM1155 739q0 188 -61 310t-179 181.5t-289 59.5h-225v-1116h189q283 0 424 142t141 423zM634 1602q-27 46 -72 101t-94 108.5t-86 92.5v25h136
q54 -36 112.5 -85.5t109.5 -105.5q54 56 112.5 106t112.5 85h139v-25q-38 -39 -88 -92t-95.5 -108.5t-71.5 -101.5h-215z" />
    <glyph glyph-name="dcaron" unicode="&#x10f;" horiz-adv-x="1264" 
d="M552 -20q-202 0 -322.5 143t-120.5 424q0 284 122.5 429.5t325.5 145.5q85 0 149 -23t110.5 -61t77.5 -86h12q-5 31 -10 87t-5 98v419h201v-1556h-159l-33 153h-9q-30 -48 -76.5 -87.5t-111 -62.5t-151.5 -23zM599 144q163 0 230.5 94t68.5 279v31q0 197 -64.5 302.5
t-236.5 105.5q-140 0 -211 -109.5t-71 -303.5q0 -192 71 -295.5t213 -103.5zM1431 1556v-18q-11 -40 -35 -94.5t-53.5 -110.5t-61.5 -104h-113v24q11 29 21 67t19.5 80.5t17 82.5t11.5 73h194z" />
    <glyph glyph-name="Dcroat" unicode="&#x110;" horiz-adv-x="1494" 
d="M642 1462q224 0 387 -81.5t252 -241t89 -394.5q0 -247 -91 -412.5t-264 -249t-419 -83.5h-390v636h-151v175h151v651h436zM626 1290h-216v-479h338v-175h-338v-462h179q283 0 424.5 142t141.5 423q0 188 -61.5 310t-179.5 181.5t-288 59.5z" />
    <glyph glyph-name="dcroat" unicode="&#x111;" horiz-adv-x="1274" 
d="M552 -20q-202 0 -322.5 141t-120.5 416q0 283 122.5 424.5t324.5 141.5q85 0 149 -23t111 -61.5t78 -85.5h12q-6 34 -10.5 91.5t-4.5 97.5v111h-411v143h411v180h201v-180h155v-143h-155v-1233h-160l-33 153h-9q-31 -48 -77 -87.5t-110 -62.5t-151 -23zM599 144
q164 0 230.5 91t67.5 272v31q0 195 -64 297t-236 102q-140 0 -210.5 -106t-70.5 -296q0 -189 70.5 -290t212.5 -101z" />
    <glyph glyph-name="Emacron" unicode="&#x112;" horiz-adv-x="1140" 
d="M1017 0h-821v1462h821v-176h-616v-435h579v-174h-579v-500h616v-177zM933 1757v-153h-619v153h619z" />
    <glyph glyph-name="emacron" unicode="&#x113;" horiz-adv-x="1165" 
d="M603 1122q144 0 247 -61.5t158 -173.5t55 -264v-114h-748q3 -177 91 -271.5t247 -94.5q105 0 187 20t170 59v-169q-83 -38 -166.5 -55.5t-199.5 -17.5q-160 0 -280.5 64t-187.5 189.5t-67 309.5q0 182 61 311.5t172 198.5t261 69zM602 966q-122 0 -196 -79.5t-87 -227.5
h542q-1 91 -29 160t-84.5 108t-145.5 39zM898 1396v-153h-619v153h619z" />
    <glyph glyph-name="Ebreve" unicode="&#x114;" horiz-adv-x="1140" 
d="M1017 0h-821v1462h821v-176h-616v-435h579v-174h-579v-500h616v-177zM962 1889q-7 -85 -48.5 -149.5t-114.5 -101t-173 -36.5q-154 0 -236.5 78t-90.5 209h121q5 -56 31.5 -84.5t71.5 -38t106 -9.5q54 0 99 10.5t74.5 39.5t36.5 82h123z" />
    <glyph glyph-name="ebreve" unicode="&#x115;" horiz-adv-x="1165" 
d="M603 1122q144 0 247 -61.5t158 -173.5t55 -264v-114h-748q3 -177 91 -271.5t247 -94.5q105 0 187 20t170 59v-169q-83 -38 -166.5 -55.5t-199.5 -17.5q-160 0 -280.5 64t-187.5 189.5t-67 309.5q0 182 61 311.5t172 198.5t261 69zM602 966q-122 0 -196 -79.5t-87 -227.5
h542q-1 91 -29 160t-84.5 108t-145.5 39zM928 1528q-7 -85 -48.5 -149.5t-114.5 -101t-173 -36.5q-154 0 -236.5 78t-90.5 209h121q5 -56 31.5 -84.5t71.5 -38t106 -9.5q54 0 99 10.5t74.5 39.5t36.5 82h123z" />
    <glyph glyph-name="Edotaccent" unicode="&#x116;" horiz-adv-x="1140" 
d="M1017 0h-821v1462h821v-176h-616v-435h579v-174h-579v-500h616v-177zM627 1880q47 0 81.5 -28t34.5 -91t-34.5 -91.5t-81.5 -28.5q-50 0 -83.5 28.5t-33.5 91.5t33.5 91t83.5 28z" />
    <glyph glyph-name="edotaccent" unicode="&#x117;" horiz-adv-x="1165" 
d="M603 1122q144 0 247 -61.5t158 -173.5t55 -264v-114h-748q3 -177 91 -271.5t247 -94.5q105 0 187 20t170 59v-169q-83 -38 -166.5 -55.5t-199.5 -17.5q-160 0 -280.5 64t-187.5 189.5t-67 309.5q0 182 61 311.5t172 198.5t261 69zM602 966q-122 0 -196 -79.5t-87 -227.5
h542q-1 91 -29 160t-84.5 108t-145.5 39zM592 1519q47 0 81.5 -28t34.5 -91t-34.5 -91.5t-81.5 -28.5q-50 0 -83.5 28.5t-33.5 91.5t33.5 91t83.5 28z" />
    <glyph glyph-name="Eogonek" unicode="&#x118;" horiz-adv-x="1140" 
d="M1017 0h-821v1462h821v-176h-616v-435h579v-174h-579v-500h616v-177zM816 -237q0 -46 24 -69.5t68 -23.5q32 0 58 5t44 9v-125q-29 -8 -60 -13.5t-73 -5.5q-107 0 -162 53.5t-55 146.5q0 58 29.5 112.5t75 100.5t94.5 78l102 -31q-70 -64 -107.5 -120t-37.5 -117z" />
    <glyph glyph-name="eogonek" unicode="&#x119;" horiz-adv-x="1165" 
d="M803 -237q0 -46 24 -69.5t67 -23.5q33 0 59 5t43 9v-125q-29 -8 -59.5 -13.5t-72.5 -5.5q-107 0 -162 53.5t-55 146.5q0 58 29.5 112.5t75 101t94.5 80.5l163 18q-81 -66 -126 -116t-62.5 -91t-17.5 -82zM603 1122q144 0 247 -61.5t158 -173.5t55 -264v-114h-748
q3 -177 91 -271.5t247 -94.5q105 0 187 20t170 59v-169q-83 -38 -166.5 -55.5t-199.5 -17.5q-160 0 -280.5 64t-187.5 189.5t-67 309.5q0 182 61 311.5t172 198.5t261 69zM602 966q-122 0 -196 -79.5t-87 -227.5h542q-1 91 -29 160t-84.5 108t-145.5 39z" />
    <glyph glyph-name="Ecaron" unicode="&#x11a;" horiz-adv-x="1140" 
d="M1017 0h-821v1462h821v-176h-616v-435h579v-174h-579v-500h616v-177zM516 1602q-27 46 -72 101t-94 108.5t-86 92.5v25h136q54 -36 112.5 -85.5t109.5 -105.5q54 56 112.5 106t112.5 85h139v-25q-38 -39 -88 -92t-95.5 -108.5t-71.5 -101.5h-215z" />
    <glyph glyph-name="ecaron" unicode="&#x11b;" horiz-adv-x="1165" 
d="M603 1122q144 0 247 -61.5t158 -173.5t55 -264v-114h-748q3 -177 91 -271.5t247 -94.5q105 0 187 20t170 59v-169q-83 -38 -166.5 -55.5t-199.5 -17.5q-160 0 -280.5 64t-187.5 189.5t-67 309.5q0 182 61 311.5t172 198.5t261 69zM602 966q-122 0 -196 -79.5t-87 -227.5
h542q-1 91 -29 160t-84.5 108t-145.5 39zM481 1241q-27 46 -72 101t-94 108.5t-86 92.5v25h136q54 -36 112.5 -85.5t109.5 -105.5q54 56 112.5 106t112.5 85h139v-25q-38 -39 -88 -92t-95.5 -108.5t-71.5 -101.5h-215z" />
    <glyph glyph-name="Gcircumflex" unicode="&#x11c;" horiz-adv-x="1488" 
d="M804 780h528v-721q-115 -39 -237 -59t-274 -20q-226 0 -381 90t-235.5 258t-80.5 404q0 227 89 396t259 262t410 93q120 0 230.5 -23t203.5 -64l-74 -173q-78 35 -172.5 59.5t-195.5 24.5q-168 0 -288.5 -71t-185 -200t-64.5 -306q0 -173 54 -302t169 -201t296 -72
q91 0 155.5 10t118.5 24v412h-325v179zM935 1929q26 -45 71.5 -101.5t95.5 -110t88 -92.5v-23h-139q-54 34 -112.5 83.5t-112.5 104.5q-54 -55 -111 -103.5t-111 -84.5h-136v23q38 40 86.5 93.5t93.5 109.5t72 101h215z" />
    <glyph glyph-name="gcircumflex" unicode="&#x11d;" horiz-adv-x="1123" 
d="M483 -492q-221 0 -339.5 81t-118.5 226q0 103 65 174.5t182 96.5q-44 20 -75.5 61.5t-31.5 93.5q0 61 34.5 105.5t103.5 86.5q-87 36 -140 119.5t-53 195.5q0 119 50.5 203t145.5 128t231 44q30 0 62 -2.5t61 -7.5t47 -10h380v-119l-196 -30q29 -38 47 -90t18 -114
q0 -168 -114.5 -265.5t-316.5 -97.5q-47 1 -95 8q-43 -25 -65 -54.5t-22 -67.5q0 -29 19.5 -47t56.5 -26.5t90 -8.5h192q180 0 276 -76t96 -222q0 -185 -152 -285t-438 -100zM490 -345q129 0 215.5 26t130.5 74t44 114q0 60 -28.5 91.5t-84.5 42.5t-138 11h-182
q-70 0 -122 -22t-81 -63.5t-29 -102.5q0 -83 71.5 -127t203.5 -44zM534 524q111 0 166 58.5t55 167.5q0 117 -56 176t-166 59q-107 0 -163.5 -60.5t-56.5 -176.5q0 -107 57 -165.5t164 -58.5zM640 1568q26 -45 71.5 -101.5t95.5 -110t88 -92.5v-23h-139q-54 34 -112.5 83.5
t-112.5 104.5q-54 -55 -111 -103.5t-111 -84.5h-136v23q38 40 86.5 93.5t93.5 109.5t72 101h215z" />
    <glyph glyph-name="Gbreve" unicode="&#x11e;" horiz-adv-x="1488" 
d="M804 780h528v-721q-115 -39 -237 -59t-274 -20q-226 0 -381 90t-235.5 258t-80.5 404q0 227 89 396t259 262t410 93q120 0 230.5 -23t203.5 -64l-74 -173q-78 35 -172.5 59.5t-195.5 24.5q-168 0 -288.5 -71t-185 -200t-64.5 -306q0 -173 54 -302t169 -201t296 -72
q91 0 155.5 10t118.5 24v412h-325v179zM1164 1889q-7 -85 -48.5 -149.5t-114.5 -101t-173 -36.5q-154 0 -236.5 78t-90.5 209h121q5 -56 31.5 -84.5t71.5 -38t106 -9.5q54 0 99 10.5t74.5 39.5t36.5 82h123z" />
    <glyph glyph-name="gbreve" unicode="&#x11f;" horiz-adv-x="1123" 
d="M483 -492q-221 0 -339.5 81t-118.5 226q0 103 65 174.5t182 96.5q-44 20 -75.5 61.5t-31.5 93.5q0 61 34.5 105.5t103.5 86.5q-87 36 -140 119.5t-53 195.5q0 119 50.5 203t145.5 128t231 44q30 0 62 -2.5t61 -7.5t47 -10h380v-119l-196 -30q29 -38 47 -90t18 -114
q0 -168 -114.5 -265.5t-316.5 -97.5q-47 1 -95 8q-43 -25 -65 -54.5t-22 -67.5q0 -29 19.5 -47t56.5 -26.5t90 -8.5h192q180 0 276 -76t96 -222q0 -185 -152 -285t-438 -100zM490 -345q129 0 215.5 26t130.5 74t44 114q0 60 -28.5 91.5t-84.5 42.5t-138 11h-182
q-70 0 -122 -22t-81 -63.5t-29 -102.5q0 -83 71.5 -127t203.5 -44zM534 524q111 0 166 58.5t55 167.5q0 117 -56 176t-166 59q-107 0 -163.5 -60.5t-56.5 -176.5q0 -107 57 -165.5t164 -58.5zM865 1528q-7 -85 -48.5 -149.5t-114.5 -101t-173 -36.5q-154 0 -236.5 78
t-90.5 209h121q5 -56 31.5 -84.5t71.5 -38t106 -9.5q54 0 99 10.5t74.5 39.5t36.5 82h123z" />
    <glyph glyph-name="Gdot" unicode="&#x120;" horiz-adv-x="1488" 
d="M804 780h528v-721q-115 -39 -237 -59t-274 -20q-226 0 -381 90t-235.5 258t-80.5 404q0 227 89 396t259 262t410 93q120 0 230.5 -23t203.5 -64l-74 -173q-78 35 -172.5 59.5t-195.5 24.5q-168 0 -288.5 -71t-185 -200t-64.5 -306q0 -173 54 -302t169 -201t296 -72
q91 0 155.5 10t118.5 24v412h-325v179zM830 1880q47 0 81.5 -28t34.5 -91t-34.5 -91.5t-81.5 -28.5q-50 0 -83.5 28.5t-33.5 91.5t33.5 91t83.5 28z" />
    <glyph glyph-name="gdot" unicode="&#x121;" horiz-adv-x="1123" 
d="M483 -492q-221 0 -339.5 81t-118.5 226q0 103 65 174.5t182 96.5q-44 20 -75.5 61.5t-31.5 93.5q0 61 34.5 105.5t103.5 86.5q-87 36 -140 119.5t-53 195.5q0 119 50.5 203t145.5 128t231 44q30 0 62 -2.5t61 -7.5t47 -10h380v-119l-196 -30q29 -38 47 -90t18 -114
q0 -168 -114.5 -265.5t-316.5 -97.5q-47 1 -95 8q-43 -25 -65 -54.5t-22 -67.5q0 -29 19.5 -47t56.5 -26.5t90 -8.5h192q180 0 276 -76t96 -222q0 -185 -152 -285t-438 -100zM490 -345q129 0 215.5 26t130.5 74t44 114q0 60 -28.5 91.5t-84.5 42.5t-138 11h-182
q-70 0 -122 -22t-81 -63.5t-29 -102.5q0 -83 71.5 -127t203.5 -44zM534 524q111 0 166 58.5t55 167.5q0 117 -56 176t-166 59q-107 0 -163.5 -60.5t-56.5 -176.5q0 -107 57 -165.5t164 -58.5zM535 1519q47 0 81.5 -28t34.5 -91t-34.5 -91.5t-81.5 -28.5q-50 0 -83.5 28.5
t-33.5 91.5t33.5 91t83.5 28z" />
    <glyph glyph-name="uni0122" unicode="&#x122;" horiz-adv-x="1488" 
d="M804 780h528v-721q-115 -39 -237 -59t-274 -20q-226 0 -381 90t-235.5 258t-80.5 404q0 227 89 396t259 262t410 93q120 0 230.5 -23t203.5 -64l-74 -173q-78 35 -172.5 59.5t-195.5 24.5q-168 0 -288.5 -71t-185 -200t-64.5 -306q0 -173 54 -302t169 -201t296 -72
q91 0 155.5 10t118.5 24v412h-325v179zM951 -125v-18q-12 -40 -36.5 -94.5t-56.5 -111t-68 -104.5h-112v25q14 35 30 89.5t30 112t19 101.5h194z" />
    <glyph glyph-name="uni0123" unicode="&#x123;" horiz-adv-x="1123" 
d="M681 1568v-24q-14 -35 -31 -89.5t-30 -112.5t-19 -102h-195v20q14 40 38 94t55.5 110.5t68.5 103.5h113zM483 -492q-221 0 -339.5 81t-118.5 226q0 103 65 174.5t182 96.5q-44 20 -75.5 61.5t-31.5 93.5q0 61 34.5 105.5t103.5 86.5q-87 36 -140 119.5t-53 195.5
q0 119 50.5 203t145.5 128t231 44q30 0 62 -2.5t61 -7.5t47 -10h380v-119l-196 -30q29 -38 47 -90t18 -114q0 -168 -114.5 -265.5t-316.5 -97.5q-47 1 -95 8q-43 -25 -65 -54.5t-22 -67.5q0 -29 19.5 -47t56.5 -26.5t90 -8.5h192q180 0 276 -76t96 -222q0 -185 -152 -285
t-438 -100zM490 -345q129 0 215.5 26t130.5 74t44 114q0 60 -28.5 91.5t-84.5 42.5t-138 11h-182q-70 0 -122 -22t-81 -63.5t-29 -102.5q0 -83 71.5 -127t203.5 -44zM534 524q111 0 166 58.5t55 167.5q0 117 -56 176t-166 59q-107 0 -163.5 -60.5t-56.5 -176.5
q0 -107 57 -165.5t164 -58.5z" />
    <glyph glyph-name="Hcircumflex" unicode="&#x124;" horiz-adv-x="1524" 
d="M1327 0h-205v675h-721v-675h-205v1462h205v-610h721v610h205v-1462zM873 1929q26 -45 71.5 -101.5t95.5 -110t88 -92.5v-23h-139q-54 34 -112.5 83.5t-112.5 104.5q-54 -55 -111 -103.5t-111 -84.5h-136v23q38 40 86.5 93.5t93.5 109.5t72 101h215z" />
    <glyph glyph-name="hcircumflex" unicode="&#x125;" horiz-adv-x="1279" 
d="M372 1556v-428q0 -51 -3 -100t-7 -82h12q35 58 86.5 96.5t117 58t138.5 19.5q129 0 218 -42t135 -130.5t46 -229.5v-718h-199v691q0 132 -58 198.5t-178 66.5q-114 0 -182 -45.5t-97 -133.5t-29 -216v-561h-201v1556h201zM384 2023q26 -45 71.5 -101.5t95.5 -110
t88 -92.5v-23h-139q-54 34 -112.5 83.5t-112.5 104.5q-54 -55 -111 -103.5t-111 -84.5h-136v23q38 40 86.5 93.5t93.5 109.5t72 101h215z" />
    <glyph glyph-name="Hbar" unicode="&#x126;" horiz-adv-x="1524" 
d="M196 0v1075h-196v153h196v234h205v-234h721v234h205v-234h196v-153h-196v-1075h-205v675h-721v-675h-205zM401 852h721v223h-721v-223z" />
    <glyph glyph-name="hbar" unicode="&#x127;" horiz-adv-x="1279" 
d="M372 1556v-180h410v-145h-410v-146q0 -51 -3 -99.5t-7 -81.5h13q34 58 85.5 96.5t117.5 58.5t140 20q129 0 217 -42.5t134 -131.5t46 -229v-676h-199v648q0 133 -58 199.5t-178 66.5q-114 0 -182 -46t-97 -133.5t-29 -214.5v-520h-201v1231h-155v145h155v180h201z" />
    <glyph glyph-name="Itilde" unicode="&#x128;" horiz-adv-x="599" 
d="M196 0v1462h205v-1462h-205zM-81 1604q6 65 24.5 115t49 84t71 51.5t88.5 17.5q45 0 86.5 -17.5t79.5 -40.5t74 -40.5t70 -17.5q43 0 70 28.5t41 89.5h111q-13 -127 -74.5 -198t-158.5 -71q-44 0 -84.5 18t-78.5 40.5t-74.5 40.5t-72.5 18q-44 0 -70.5 -28.5t-40.5 -89.5
h-111z" />
    <glyph glyph-name="itilde" unicode="&#x129;" horiz-adv-x="544" 
d="M372 0h-201v1102h201v-1102zM-115 1243q6 65 24.5 115t49 84t71 51.5t88.5 17.5q45 0 86.5 -17.5t79.5 -40.5t74 -40.5t70 -17.5q43 0 70 28.5t41 89.5h111q-13 -127 -74.5 -198t-158.5 -71q-44 0 -84.5 18t-78.5 40.5t-74.5 40.5t-72.5 18q-44 0 -70.5 -28.5
t-40.5 -89.5h-111z" />
    <glyph glyph-name="Imacron" unicode="&#x12a;" horiz-adv-x="599" 
d="M196 0v1462h205v-1462h-205zM609 1757v-153h-619v153h619z" />
    <glyph glyph-name="imacron" unicode="&#x12b;" horiz-adv-x="544" 
d="M372 0h-201v1102h201v-1102zM582 1396v-153h-619v153h619z" />
    <glyph glyph-name="Ibreve" unicode="&#x12c;" horiz-adv-x="599" 
d="M196 0v1462h205v-1462h-205zM631 1889q-7 -85 -48.5 -149.5t-114.5 -101t-173 -36.5q-154 0 -236.5 78t-90.5 209h121q5 -56 31.5 -84.5t71.5 -38t106 -9.5q54 0 99 10.5t74.5 39.5t36.5 82h123z" />
    <glyph glyph-name="ibreve" unicode="&#x12d;" horiz-adv-x="544" 
d="M372 0h-201v1102h201v-1102zM611 1528q-7 -85 -48.5 -149.5t-114.5 -101t-173 -36.5q-154 0 -236.5 78t-90.5 209h121q5 -56 31.5 -84.5t71.5 -38t106 -9.5q54 0 99 10.5t74.5 39.5t36.5 82h123z" />
    <glyph glyph-name="Iogonek" unicode="&#x12e;" horiz-adv-x="599" 
d="M196 0v1462h205v-1462h-205zM256 -237q0 -46 24 -69.5t68 -23.5q32 0 58 5t44 9v-125q-29 -8 -60 -13.5t-73 -5.5q-107 0 -162 53.5t-55 146.5q0 58 29.5 112.5t75 100.5t94.5 78l102 -31q-70 -64 -107.5 -120t-37.5 -117z" />
    <glyph glyph-name="iogonek" unicode="&#x12f;" horiz-adv-x="544" 
d="M372 1102v-1102h-201v1102h201zM273 1519q48 0 82.5 -28t34.5 -91t-34.5 -91.5t-82.5 -28.5q-49 0 -82.5 28.5t-33.5 91.5t33.5 91t82.5 28zM216 -237q0 -46 24 -69.5t68 -23.5q32 0 58 5t44 9v-125q-29 -8 -60 -13.5t-73 -5.5q-107 0 -162 53.5t-55 146.5
q0 58 29.5 112.5t75 100.5t94.5 78l102 -31q-70 -64 -107.5 -120t-37.5 -117z" />
    <glyph glyph-name="Idotaccent" unicode="&#x130;" horiz-adv-x="599" 
d="M196 0v1462h205v-1462h-205zM302 1880q47 0 81.5 -28t34.5 -91t-34.5 -91.5t-81.5 -28.5q-50 0 -83.5 28.5t-33.5 91.5t33.5 91t83.5 28z" />
    <glyph glyph-name="dotlessi" unicode="&#x131;" horiz-adv-x="544" 
d="M372 0h-201v1102h201v-1102z" />
    <glyph glyph-name="IJ" unicode="&#x132;" horiz-adv-x="1181" 
d="M196 0v1462h205v-1462h-205zM599 -396q-53 0 -93 7t-68 18v173q32 -9 69 -15t79 -6q56 0 102 22t73 76t27 150v1433h206v-1423q0 -149 -48.5 -245.5t-137.5 -143t-209 -46.5z" />
    <glyph glyph-name="ij" unicode="&#x133;" horiz-adv-x="1088" 
d="M372 1102v-1102h-201v1102h201zM273 1519q48 0 82.5 -28t34.5 -91t-34.5 -91.5t-82.5 -28.5q-49 0 -82.5 28.5t-33.5 91.5t33.5 91t82.5 28zM594 -492q-51 0 -93.5 7.5t-73.5 17.5v161q33 -10 65 -15t72 -5q67 0 109 37t42 137v1254h201v-1262q0 -100 -33.5 -175
t-105 -116t-183.5 -41zM701 1400q0 63 33.5 91t82.5 28q48 0 82.5 -28t34.5 -91t-34.5 -91.5t-82.5 -28.5q-49 0 -82.5 28.5t-33.5 91.5z" />
    <glyph glyph-name="Jcircumflex" unicode="&#x134;" horiz-adv-x="582" 
d="M0 -396q-53 0 -93 7t-68 18v173q32 -9 69 -15t79 -6q56 0 102 22t73 76t27 150v1433h206v-1423q0 -149 -48.5 -245.5t-137.5 -143t-209 -46.5zM402 1929q26 -45 71.5 -101.5t95.5 -110t88 -92.5v-23h-139q-54 34 -112.5 83.5t-112.5 104.5q-54 -55 -111 -103.5
t-111 -84.5h-136v23q38 40 86.5 93.5t93.5 109.5t72 101h215z" />
    <glyph glyph-name="jcircumflex" unicode="&#x135;" horiz-adv-x="544" 
d="M50 -492q-51 0 -93.5 7.5t-73.5 17.5v161q33 -10 65 -15t72 -5q67 0 109 37t42 137v1254h201v-1262q0 -100 -33.5 -175t-105 -116t-183.5 -41zM381 1568q26 -45 71.5 -101.5t95.5 -110t88 -92.5v-23h-139q-54 34 -112.5 83.5t-112.5 104.5q-54 -55 -111 -103.5
t-111 -84.5h-136v23q38 40 86.5 93.5t93.5 109.5t72 101h215z" />
    <glyph glyph-name="uni0136" unicode="&#x136;" horiz-adv-x="1281" 
d="M1281 0h-239l-491 687l-150 -128v-559h-205v1462h205v-714q51 60 103.5 119t104.5 119l419 476h235l-564 -637zM816 -125v-18q-12 -40 -36.5 -94.5t-56.5 -111t-68 -104.5h-112v25q14 35 30 89.5t30 112t19 101.5h194z" />
    <glyph glyph-name="uni0137" unicode="&#x137;" horiz-adv-x="1125" 
d="M371 1556v-780q0 -46 -3.5 -104.5t-6.5 -107.5h7q23 30 61.5 79t68.5 83l352 376h232l-442 -473l473 -629h-238l-371 503l-133 -118v-385h-200v1556h200zM701 -125v-18q-12 -40 -36.5 -94.5t-56.5 -111t-68 -104.5h-112v25q14 35 30 89.5t30 112t19 101.5h194z" />
    <glyph glyph-name="kgreenlandic" unicode="&#x138;" horiz-adv-x="1125" 
d="M1080 1102l-421 -491l454 -611h-236l-354 485l-143 -115v-370h-209v1102h209v-288q-1 -77 -3.5 -152t-7.5 -125h4q24 31 49.5 62t48.5 61l377 442h232z" />
    <glyph glyph-name="Lacute" unicode="&#x139;" horiz-adv-x="1091" 
d="M196 0v1462h205v-1284h635v-178h-840zM611 1930v-20q-22 -29 -59.5 -69.5t-82.5 -85t-90 -84.5t-82 -69h-134v25q32 38 71.5 91t77.5 109.5t63 102.5h236z" />
    <glyph glyph-name="lacute" unicode="&#x13a;" horiz-adv-x="544" 
d="M373 0h-202v1556h202v-1556zM588 2024v-20q-22 -29 -59.5 -69.5t-82.5 -85t-90 -84.5t-82 -69h-134v25q32 38 71.5 91t77.5 109.5t63 102.5h236z" />
    <glyph glyph-name="uni013B" unicode="&#x13b;" horiz-adv-x="1091" 
d="M196 0v1462h205v-1284h635v-178h-840zM751 -125v-18q-12 -40 -36.5 -94.5t-56.5 -111t-68 -104.5h-112v25q14 35 30 89.5t30 112t19 101.5h194z" />
    <glyph glyph-name="uni013C" unicode="&#x13c;" horiz-adv-x="544" 
d="M373 0h-202v1556h202v-1556zM407 -125v-18q-12 -40 -36.5 -94.5t-56.5 -111t-68 -104.5h-112v25q14 35 30 89.5t30 112t19 101.5h194z" />
    <glyph glyph-name="Lcaron" unicode="&#x13d;" horiz-adv-x="1091" 
d="M196 0v1462h205v-1284h635v-178h-840zM1048 1462v-18q-11 -40 -35 -94.5t-53.5 -110.5t-61.5 -104h-113v24q11 29 21 67t19.5 80.5t17 82.5t11.5 73h194z" />
    <glyph glyph-name="lcaron" unicode="&#x13e;" horiz-adv-x="544" 
d="M373 0h-202v1556h202v-1556zM715 1556v-18q-11 -40 -35 -94.5t-53.5 -110.5t-61.5 -104h-113v24q11 29 21 67t19.5 80.5t17 82.5t11.5 73h194z" />
    <glyph glyph-name="Ldot" unicode="&#x13f;" horiz-adv-x="1091" 
d="M196 0v1462h205v-1284h635v-178h-840zM809 875q47 0 81.5 -28t34.5 -91t-34.5 -91.5t-81.5 -28.5q-50 0 -83.5 28.5t-33.5 91.5t33.5 91t83.5 28z" />
    <glyph glyph-name="ldot" unicode="&#x140;" horiz-adv-x="587" 
d="M373 0h-202v1556h202v-1556zM566 897q47 0 81.5 -28t34.5 -91t-34.5 -91.5t-81.5 -28.5q-50 0 -83.5 28.5t-33.5 91.5t33.5 91t83.5 28z" />
    <glyph glyph-name="Lslash" unicode="&#x141;" horiz-adv-x="1091" 
d="M196 0v509l-97 -57l-79 134l176 107v769h205v-647l253 151l80 -139l-333 -196v-453h635v-178h-840z" />
    <glyph glyph-name="lslash" unicode="&#x142;" horiz-adv-x="544" 
d="M163 0v566l-100 -62l-80 133l180 114v805h201v-678l119 81l81 -133l-200 -133v-693h-201z" />
    <glyph glyph-name="Nacute" unicode="&#x143;" horiz-adv-x="1573" 
d="M1378 0h-246l-757 1198h-8q3 -54 7 -118.5t6.5 -135t3.5 -142.5v-802h-188v1462h244l754 -1192h7q-2 44 -5 109t-5.5 137.5t-2.5 137.5v808h190v-1462zM1102 1930v-20q-22 -29 -59.5 -69.5t-82.5 -85t-90 -84.5t-82 -69h-134v25q32 38 71.5 91t77.5 109.5t63 102.5h236z
" />
    <glyph glyph-name="nacute" unicode="&#x144;" horiz-adv-x="1279" 
d="M719 1122q191 0 293.5 -96t102.5 -308v-718h-199v691q0 132 -58 198.5t-178 66.5q-171 0 -239.5 -101t-68.5 -293v-562h-201v1102h159l29 -155h11q35 58 89 97t120.5 58.5t139.5 19.5zM958 1569v-20q-22 -29 -59.5 -69.5t-82.5 -85t-90 -84.5t-82 -69h-134v25
q32 38 71.5 91t77.5 109.5t63 102.5h236z" />
    <glyph glyph-name="uni0145" unicode="&#x145;" horiz-adv-x="1573" 
d="M1378 0h-246l-757 1198h-8q3 -54 7 -118.5t6.5 -135t3.5 -142.5v-802h-188v1462h244l754 -1192h7q-2 44 -5 109t-5.5 137.5t-2.5 137.5v808h190v-1462zM922 -125v-18q-12 -40 -36.5 -94.5t-56.5 -111t-68 -104.5h-112v25q14 35 30 89.5t30 112t19 101.5h194z" />
    <glyph glyph-name="uni0146" unicode="&#x146;" horiz-adv-x="1279" 
d="M719 1122q191 0 293.5 -96t102.5 -308v-718h-199v691q0 132 -58 198.5t-178 66.5q-171 0 -239.5 -101t-68.5 -293v-562h-201v1102h159l29 -155h11q35 58 89 97t120.5 58.5t139.5 19.5zM775 -125v-18q-12 -40 -36.5 -94.5t-56.5 -111t-68 -104.5h-112v25q14 35 30 89.5
t30 112t19 101.5h194z" />
    <glyph glyph-name="Ncaron" unicode="&#x147;" horiz-adv-x="1573" 
d="M1378 0h-246l-757 1198h-8q3 -54 7 -118.5t6.5 -135t3.5 -142.5v-802h-188v1462h244l754 -1192h7q-2 44 -5 109t-5.5 137.5t-2.5 137.5v808h190v-1462zM679 1602q-27 46 -72 101t-94 108.5t-86 92.5v25h136q54 -36 112.5 -85.5t109.5 -105.5q54 56 112.5 106t112.5 85
h139v-25q-38 -39 -88 -92t-95.5 -108.5t-71.5 -101.5h-215z" />
    <glyph glyph-name="ncaron" unicode="&#x148;" horiz-adv-x="1279" 
d="M719 1122q191 0 293.5 -96t102.5 -308v-718h-199v691q0 132 -58 198.5t-178 66.5q-171 0 -239.5 -101t-68.5 -293v-562h-201v1102h159l29 -155h11q35 58 89 97t120.5 58.5t139.5 19.5zM534 1241q-27 46 -72 101t-94 108.5t-86 92.5v25h136q54 -36 112.5 -85.5
t109.5 -105.5q54 56 112.5 106t112.5 85h139v-25q-38 -39 -88 -92t-95.5 -108.5t-71.5 -101.5h-215z" />
    <glyph glyph-name="napostrophe" unicode="&#x149;" horiz-adv-x="1433" 
d="M874 1122q191 0 293.5 -96t102.5 -308v-718h-199v691q0 132 -58 198.5t-178 66.5q-171 0 -239.5 -101t-68.5 -293v-562h-201v1102h159l29 -155h11q35 58 89 97t120.5 58.5t139.5 19.5zM308 1462l15 -22q-18 -73 -46 -156t-61.5 -166t-66.5 -157h-146q15 58 30 123t29 132
t25.5 129.5t19.5 116.5h201z" />
    <glyph glyph-name="Eng" unicode="&#x14a;" horiz-adv-x="1573" 
d="M979 -396q-54 0 -96 7t-71 19v167q33 -8 73 -14t86 -6q61 0 110 21t78.5 70.5t30.5 134.5l-815 1195h-8q4 -45 8 -116t6.5 -149.5t2.5 -146.5v-786h-188v1462h244l754 -1117h7q-3 48 -6 116t-5 142.5t-2 141.5v717h190v-1454q0 -137 -49.5 -227t-139 -133.5t-210.5 -43.5
z" />
    <glyph glyph-name="eng" unicode="&#x14b;" horiz-adv-x="1279" 
d="M811 -492q-48 0 -86.5 7.5t-66.5 17.5v161q28 -10 57 -15t64 -5q59 0 98 37t39 137v850q0 130 -58 194t-176 64q-114 0 -182 -45t-98 -132.5t-30 -214.5v-564h-201v1102h159l31 -155h11q35 58 88 97t119 58.5t140 19.5q129 0 217.5 -42t134 -131t45.5 -230v-879
q0 -100 -32.5 -175t-99.5 -116t-173 -41z" />
    <glyph glyph-name="Omacron" unicode="&#x14c;" horiz-adv-x="1602" 
d="M1479 733q0 -169 -43 -307.5t-127.5 -238t-211 -153.5t-295.5 -54q-172 0 -299.5 54t-211.5 154t-125.5 239t-41.5 308q0 225 74 394t225.5 262.5t381.5 93.5q222 0 372 -93t226 -261.5t76 -397.5zM339 733q0 -178 49.5 -307.5t152 -200t261.5 -70.5q161 0 263 70.5
t150 200t48 307.5q0 270 -110 422.5t-348 152.5q-160 0 -263 -69.5t-153 -198t-50 -307.5zM1111 1757v-153h-619v153h619z" />
    <glyph glyph-name="omacron" unicode="&#x14d;" horiz-adv-x="1241" 
d="M1134 553q0 -136 -35.5 -242.5t-103 -180t-162.5 -112t-215 -38.5q-112 0 -205.5 38.5t-161.5 112t-105 180t-37 242.5q0 181 62 308.5t177.5 194t275.5 66.5q152 0 267 -67t179 -194t64 -308zM315 553q0 -127 32.5 -218.5t100 -140.5t174.5 -49q105 0 173 49t100 140.5
t32 218.5q0 126 -32 216t-99.5 138t-175.5 48q-158 0 -231.5 -105.5t-73.5 -296.5zM930 1396v-153h-619v153h619z" />
    <glyph glyph-name="Obreve" unicode="&#x14e;" horiz-adv-x="1602" 
d="M1479 733q0 -169 -43 -307.5t-127.5 -238t-211 -153.5t-295.5 -54q-172 0 -299.5 54t-211.5 154t-125.5 239t-41.5 308q0 225 74 394t225.5 262.5t381.5 93.5q222 0 372 -93t226 -261.5t76 -397.5zM339 733q0 -178 49.5 -307.5t152 -200t261.5 -70.5q161 0 263 70.5
t150 200t48 307.5q0 270 -110 422.5t-348 152.5q-160 0 -263 -69.5t-153 -198t-50 -307.5zM1141 1889q-7 -85 -48.5 -149.5t-114.5 -101t-173 -36.5q-154 0 -236.5 78t-90.5 209h121q5 -56 31.5 -84.5t71.5 -38t106 -9.5q54 0 99 10.5t74.5 39.5t36.5 82h123z" />
    <glyph glyph-name="obreve" unicode="&#x14f;" horiz-adv-x="1241" 
d="M1134 553q0 -136 -35.5 -242.5t-103 -180t-162.5 -112t-215 -38.5q-112 0 -205.5 38.5t-161.5 112t-105 180t-37 242.5q0 181 62 308.5t177.5 194t275.5 66.5q152 0 267 -67t179 -194t64 -308zM315 553q0 -127 32.5 -218.5t100 -140.5t174.5 -49q105 0 173 49t100 140.5
t32 218.5q0 126 -32 216t-99.5 138t-175.5 48q-158 0 -231.5 -105.5t-73.5 -296.5zM960 1528q-7 -85 -48.5 -149.5t-114.5 -101t-173 -36.5q-154 0 -236.5 78t-90.5 209h121q5 -56 31.5 -84.5t71.5 -38t106 -9.5q54 0 99 10.5t74.5 39.5t36.5 82h123z" />
    <glyph glyph-name="Ohungarumlaut" unicode="&#x150;" horiz-adv-x="1602" 
d="M1479 733q0 -169 -43 -307.5t-127.5 -238t-211 -153.5t-295.5 -54q-172 0 -299.5 54t-211.5 154t-125.5 239t-41.5 308q0 225 74 394t225.5 262.5t381.5 93.5q222 0 372 -93t226 -261.5t76 -397.5zM339 733q0 -178 49.5 -307.5t152 -200t261.5 -70.5q161 0 263 70.5
t150 200t48 307.5q0 270 -110 422.5t-348 152.5q-160 0 -263 -69.5t-153 -198t-50 -307.5zM1307 1930v-20q-17 -28 -50 -68.5t-74.5 -85t-83.5 -85t-77 -69.5h-113v25q30 39 64.5 92.5t67.5 109t54 101.5h212zM940 1930v-20q-17 -28 -50 -68.5t-74.5 -85t-83.5 -85
t-77 -69.5h-113v25q30 39 64 92.5t66.5 109t55.5 101.5h212z" />
    <glyph glyph-name="ohungarumlaut" unicode="&#x151;" horiz-adv-x="1241" 
d="M1134 553q0 -136 -35.5 -242.5t-103 -180t-162.5 -112t-215 -38.5q-112 0 -205.5 38.5t-161.5 112t-105 180t-37 242.5q0 181 62 308.5t177.5 194t275.5 66.5q152 0 267 -67t179 -194t64 -308zM315 553q0 -127 32.5 -218.5t100 -140.5t174.5 -49q105 0 173 49t100 140.5
t32 218.5q0 126 -32 216t-99.5 138t-175.5 48q-158 0 -231.5 -105.5t-73.5 -296.5zM1126 1569v-20q-17 -28 -50 -68.5t-74.5 -85t-83.5 -85t-77 -69.5h-113v25q30 39 64.5 92.5t67.5 109t54 101.5h212zM759 1569v-20q-17 -28 -50 -68.5t-74.5 -85t-83.5 -85t-77 -69.5h-113
v25q30 39 64 92.5t66.5 109t55.5 101.5h212z" />
    <glyph glyph-name="OE" unicode="&#x152;" horiz-adv-x="1919" 
d="M786 1484q52 0 104.5 -5.5t97.5 -16.5h808v-176h-593v-435h555v-174h-555v-500h593v-177h-802q-44 -8 -97 -13t-105 -5q-226 0 -374.5 94t-221 263.5t-72.5 395.5t72.5 394.5t219.5 261.5t370 93zM797 1307q-118 0 -205 -39.5t-143.5 -114t-84.5 -180.5t-28 -240
q0 -178 49 -307t151 -199t258 -70q57 0 111.5 9t93.5 25v1083q-40 17 -92.5 25t-109.5 8z" />
    <glyph glyph-name="oe" unicode="&#x153;" horiz-adv-x="1957" 
d="M1395 1120q144 0 246.5 -61t157.5 -172.5t55 -263.5v-114h-740q5 -185 89.5 -275.5t240.5 -90.5q108 0 190 20t168 59v-169q-83 -38 -165.5 -55.5t-197.5 -17.5q-141 0 -248 55.5t-173 164.5q-63 -108 -167 -164t-239 -56q-149 0 -262.5 67t-178 195.5t-64.5 310.5
q0 181 61 307.5t175.5 193t272.5 66.5q130 0 232.5 -56t163.5 -163q40 70 97.5 119t129.5 74.5t156 25.5zM611 955q-155 0 -225.5 -102t-70.5 -300q0 -133 31.5 -224t97 -137.5t169.5 -46.5t169 46t96 136t31 221q0 134 -31.5 224.5t-97 136.5t-169.5 46zM1396 964
q-119 0 -191.5 -77t-84.5 -228h531q-1 91 -28 160t-83 107t-144 38z" />
    <glyph glyph-name="Racute" unicode="&#x154;" horiz-adv-x="1286" 
d="M599 1462q185 0 305.5 -45.5t179.5 -138t59 -234.5q0 -112 -41 -189t-107.5 -126t-142.5 -77l409 -652h-235l-356 598h-269v-598h-205v1462h403zM586 1288h-185v-519h199q173 0 253 67.5t80 199.5q0 137 -85 194.5t-262 57.5zM966 1930v-20q-22 -29 -59.5 -69.5
t-82.5 -85t-90 -84.5t-82 -69h-134v25q32 38 71.5 91t77.5 109.5t63 102.5h236z" />
    <glyph glyph-name="racute" unicode="&#x155;" horiz-adv-x="860" 
d="M701 1122q30 0 65 -3.5t60 -8.5l-21 -187q-24 6 -55.5 10t-58.5 4q-64 0 -122 -24t-102 -69.5t-69 -111t-25 -149.5v-583h-202v1102h162l24 -199h9q34 60 82.5 110t112 79.5t140.5 29.5zM810 1569v-20q-22 -29 -59.5 -69.5t-82.5 -85t-90 -84.5t-82 -69h-134v25
q32 38 71.5 91t77.5 109.5t63 102.5h236z" />
    <glyph glyph-name="uni0156" unicode="&#x156;" horiz-adv-x="1286" 
d="M599 1462q185 0 305.5 -45.5t179.5 -138t59 -234.5q0 -112 -41 -189t-107.5 -126t-142.5 -77l409 -652h-235l-356 598h-269v-598h-205v1462h403zM586 1288h-185v-519h199q173 0 253 67.5t80 199.5q0 137 -85 194.5t-262 57.5zM818 -125v-18q-12 -40 -36.5 -94.5
t-56.5 -111t-68 -104.5h-112v25q14 35 30 89.5t30 112t19 101.5h194z" />
    <glyph glyph-name="uni0157" unicode="&#x157;" horiz-adv-x="860" 
d="M701 1122q30 0 65 -3.5t60 -8.5l-21 -187q-24 6 -55.5 10t-58.5 4q-64 0 -122 -24t-102 -69.5t-69 -111t-25 -149.5v-583h-202v1102h162l24 -199h9q34 60 82.5 110t112 79.5t140.5 29.5zM404 -125v-18q-12 -40 -36.5 -94.5t-56.5 -111t-68 -104.5h-112v25q14 35 30 89.5
t30 112t19 101.5h194z" />
    <glyph glyph-name="Rcaron" unicode="&#x158;" horiz-adv-x="1286" 
d="M599 1462q185 0 305.5 -45.5t179.5 -138t59 -234.5q0 -112 -41 -189t-107.5 -126t-142.5 -77l409 -652h-235l-356 598h-269v-598h-205v1462h403zM586 1288h-185v-519h199q173 0 253 67.5t80 199.5q0 137 -85 194.5t-262 57.5zM543 1602q-27 46 -72 101t-94 108.5
t-86 92.5v25h136q54 -36 112.5 -85.5t109.5 -105.5q54 56 112.5 106t112.5 85h139v-25q-38 -39 -88 -92t-95.5 -108.5t-71.5 -101.5h-215z" />
    <glyph glyph-name="rcaron" unicode="&#x159;" horiz-adv-x="860" 
d="M701 1122q30 0 65 -3.5t60 -8.5l-21 -187q-24 6 -55.5 10t-58.5 4q-64 0 -122 -24t-102 -69.5t-69 -111t-25 -149.5v-583h-202v1102h162l24 -199h9q34 60 82.5 110t112 79.5t140.5 29.5zM386 1241q-27 46 -72 101t-94 108.5t-86 92.5v25h136q54 -36 112.5 -85.5
t109.5 -105.5q54 56 112.5 106t112.5 85h139v-25q-38 -39 -88 -92t-95.5 -108.5t-71.5 -101.5h-215z" />
    <glyph glyph-name="Sacute" unicode="&#x15a;" horiz-adv-x="1124" 
d="M1031 393q0 -130 -64.5 -222.5t-181.5 -141.5t-278 -49q-81 0 -154.5 8.5t-136.5 24.5t-114 40v194q83 -34 192 -63.5t225 -29.5q101 0 169.5 27.5t103.5 77.5t35 120t-34 117.5t-107.5 87.5t-192.5 85q-83 30 -151 68.5t-117.5 88.5t-76.5 117.5t-27 155.5
q0 121 59.5 207t166.5 131.5t248 45.5q116 0 216.5 -23t191.5 -63l-65 -170q-85 35 -171 57t-178 22q-85 0 -143.5 -25t-89 -71t-30.5 -109q0 -71 32 -118t101 -85t180 -81q125 -48 212.5 -102t133.5 -130t46 -192zM898 1930v-20q-22 -29 -59.5 -69.5t-82.5 -85t-90 -84.5
t-82 -69h-134v25q32 38 71.5 91t77.5 109.5t63 102.5h236z" />
    <glyph glyph-name="sacute" unicode="&#x15b;" horiz-adv-x="987" 
d="M898 308q0 -107 -52.5 -180.5t-152.5 -110.5t-240 -37q-116 0 -200 17.5t-152 50.5v178q73 -35 169 -62t188 -27q129 0 186.5 41t57.5 111q0 41 -23 72.5t-80.5 63t-164.5 72.5q-105 41 -179.5 82t-113.5 99t-39 150q0 143 114.5 218.5t302.5 75.5q100 0 188.5 -20
t169.5 -56l-65 -155q-72 31 -148 51.5t-155 20.5q-103 0 -157.5 -33t-54.5 -91q0 -45 25.5 -75t85.5 -58.5t162 -67.5q101 -38 174.5 -79t113.5 -100t40 -151zM810 1569v-20q-22 -29 -59.5 -69.5t-82.5 -85t-90 -84.5t-82 -69h-134v25q32 38 71.5 91t77.5 109.5t63 102.5
h236z" />
    <glyph glyph-name="Scircumflex" unicode="&#x15c;" horiz-adv-x="1124" 
d="M1031 393q0 -130 -64.5 -222.5t-181.5 -141.5t-278 -49q-81 0 -154.5 8.5t-136.5 24.5t-114 40v194q83 -34 192 -63.5t225 -29.5q101 0 169.5 27.5t103.5 77.5t35 120t-34 117.5t-107.5 87.5t-192.5 85q-83 30 -151 68.5t-117.5 88.5t-76.5 117.5t-27 155.5
q0 121 59.5 207t166.5 131.5t248 45.5q116 0 216.5 -23t191.5 -63l-65 -170q-85 35 -171 57t-178 22q-85 0 -143.5 -25t-89 -71t-30.5 -109q0 -71 32 -118t101 -85t180 -81q125 -48 212.5 -102t133.5 -130t46 -192zM693 1929q26 -45 71.5 -101.5t95.5 -110t88 -92.5v-23
h-139q-54 34 -112.5 83.5t-112.5 104.5q-54 -55 -111 -103.5t-111 -84.5h-136v23q38 40 86.5 93.5t93.5 109.5t72 101h215z" />
    <glyph glyph-name="scircumflex" unicode="&#x15d;" horiz-adv-x="987" 
d="M898 308q0 -107 -52.5 -180.5t-152.5 -110.5t-240 -37q-116 0 -200 17.5t-152 50.5v178q73 -35 169 -62t188 -27q129 0 186.5 41t57.5 111q0 41 -23 72.5t-80.5 63t-164.5 72.5q-105 41 -179.5 82t-113.5 99t-39 150q0 143 114.5 218.5t302.5 75.5q100 0 188.5 -20
t169.5 -56l-65 -155q-72 31 -148 51.5t-155 20.5q-103 0 -157.5 -33t-54.5 -91q0 -45 25.5 -75t85.5 -58.5t162 -67.5q101 -38 174.5 -79t113.5 -100t40 -151zM604 1568q26 -45 71.5 -101.5t95.5 -110t88 -92.5v-23h-139q-54 34 -112.5 83.5t-112.5 104.5
q-54 -55 -111 -103.5t-111 -84.5h-136v23q38 40 86.5 93.5t93.5 109.5t72 101h215z" />
    <glyph glyph-name="Scedilla" unicode="&#x15e;" horiz-adv-x="1124" 
d="M1031 393q0 -130 -64.5 -222.5t-181.5 -141.5t-278 -49q-81 0 -154.5 8.5t-136.5 24.5t-114 40v194q83 -34 192 -63.5t225 -29.5q101 0 169.5 27.5t103.5 77.5t35 120t-34 117.5t-107.5 87.5t-192.5 85q-83 30 -151 68.5t-117.5 88.5t-76.5 117.5t-27 155.5
q0 121 59.5 207t166.5 131.5t248 45.5q116 0 216.5 -23t191.5 -63l-65 -170q-85 35 -171 57t-178 22q-85 0 -143.5 -25t-89 -71t-30.5 -109q0 -71 32 -118t101 -85t180 -81q125 -48 212.5 -102t133.5 -130t46 -192zM745 -277q0 -101 -73 -158t-226 -57q-34 0 -64 4t-50 10
v120q21 -4 54 -8t63 -4q64 0 99.5 19.5t35.5 67.5q0 51 -49.5 77t-134.5 36l86 170h131l-47 -99q48 -11 87.5 -33t63.5 -57.5t24 -87.5z" />
    <glyph glyph-name="scedilla" unicode="&#x15f;" horiz-adv-x="987" 
d="M898 308q0 -107 -52.5 -180.5t-152.5 -110.5t-240 -37q-116 0 -200 17.5t-152 50.5v178q73 -35 169 -62t188 -27q129 0 186.5 41t57.5 111q0 41 -23 72.5t-80.5 63t-164.5 72.5q-105 41 -179.5 82t-113.5 99t-39 150q0 143 114.5 218.5t302.5 75.5q100 0 188.5 -20
t169.5 -56l-65 -155q-72 31 -148 51.5t-155 20.5q-103 0 -157.5 -33t-54.5 -91q0 -45 25.5 -75t85.5 -58.5t162 -67.5q101 -38 174.5 -79t113.5 -100t40 -151zM705 -277q0 -101 -73 -158t-226 -57q-34 0 -64 4t-50 10v120q21 -4 54 -8t63 -4q64 0 99.5 19.5t35.5 67.5
q0 51 -49.5 77t-134.5 36l86 170h131l-47 -99q48 -11 87.5 -33t63.5 -57.5t24 -87.5z" />
    <glyph glyph-name="Scaron" unicode="&#x160;" horiz-adv-x="1124" 
d="M1031 393q0 -130 -64.5 -222.5t-181.5 -141.5t-278 -49q-81 0 -154.5 8.5t-136.5 24.5t-114 40v194q83 -34 192 -63.5t225 -29.5q101 0 169.5 27.5t103.5 77.5t35 120t-34 117.5t-107.5 87.5t-192.5 85q-83 30 -151 68.5t-117.5 88.5t-76.5 117.5t-27 155.5
q0 121 59.5 207t166.5 131.5t248 45.5q116 0 216.5 -23t191.5 -63l-65 -170q-85 35 -171 57t-178 22q-85 0 -143.5 -25t-89 -71t-30.5 -109q0 -71 32 -118t101 -85t180 -81q125 -48 212.5 -102t133.5 -130t46 -192zM475 1602q-27 46 -72 101t-94 108.5t-86 92.5v25h136
q54 -36 112.5 -85.5t109.5 -105.5q54 56 112.5 106t112.5 85h139v-25q-38 -39 -88 -92t-95.5 -108.5t-71.5 -101.5h-215z" />
    <glyph glyph-name="scaron" unicode="&#x161;" horiz-adv-x="987" 
d="M898 308q0 -107 -52.5 -180.5t-152.5 -110.5t-240 -37q-116 0 -200 17.5t-152 50.5v178q73 -35 169 -62t188 -27q129 0 186.5 41t57.5 111q0 41 -23 72.5t-80.5 63t-164.5 72.5q-105 41 -179.5 82t-113.5 99t-39 150q0 143 114.5 218.5t302.5 75.5q100 0 188.5 -20
t169.5 -56l-65 -155q-72 31 -148 51.5t-155 20.5q-103 0 -157.5 -33t-54.5 -91q0 -45 25.5 -75t85.5 -58.5t162 -67.5q101 -38 174.5 -79t113.5 -100t40 -151zM386 1241q-27 46 -72 101t-94 108.5t-86 92.5v25h136q54 -36 112.5 -85.5t109.5 -105.5q54 56 112.5 106
t112.5 85h139v-25q-38 -39 -88 -92t-95.5 -108.5t-71.5 -101.5h-215z" />
    <glyph glyph-name="uni0162" unicode="&#x162;" horiz-adv-x="1143" 
d="M674 0h-206v1285h-444v177h1093v-177h-443v-1285zM781 -277q0 -101 -73 -158t-226 -57q-34 0 -64 4t-50 10v120q21 -4 54 -8t63 -4q64 0 99.5 19.5t35.5 67.5q0 51 -49.5 77t-134.5 36l86 170h131l-47 -99q48 -11 87.5 -33t63.5 -57.5t24 -87.5z" />
    <glyph glyph-name="uni0163" unicode="&#x163;" horiz-adv-x="770" 
d="M555 143q43 0 87 7.5t76 19.5v-154q-34 -15 -90.5 -25.5t-115.5 -10.5q-90 0 -163 31t-116.5 106t-43.5 208v622h-153v93l160 74l71 238h124v-250h319v-155h-319v-619q0 -93 44.5 -139t119.5 -46zM659 -277q0 -101 -73 -158t-226 -57q-34 0 -64 4t-50 10v120q21 -4 54 -8
t63 -4q64 0 99.5 19.5t35.5 67.5q0 51 -49.5 77t-134.5 36l86 170h131l-47 -99q48 -11 87.5 -33t63.5 -57.5t24 -87.5z" />
    <glyph glyph-name="Tcaron" unicode="&#x164;" horiz-adv-x="1143" 
d="M674 0h-206v1285h-444v177h1093v-177h-443v-1285zM463 1602q-27 46 -72 101t-94 108.5t-86 92.5v25h136q54 -36 112.5 -85.5t109.5 -105.5q54 56 112.5 106t112.5 85h139v-25q-38 -39 -88 -92t-95.5 -108.5t-71.5 -101.5h-215z" />
    <glyph glyph-name="tcaron" unicode="&#x165;" horiz-adv-x="770" 
d="M555 143q43 0 87 7.5t76 19.5v-154q-34 -15 -90.5 -25.5t-115.5 -10.5q-90 0 -163 31t-116.5 106t-43.5 208v622h-153v93l160 74l71 238h124v-250h319v-155h-319v-619q0 -93 44.5 -139t119.5 -46zM997 1556v-18q-11 -40 -35 -94.5t-53.5 -110.5t-61.5 -104h-113v24
q11 29 21 67t19.5 80.5t17 82.5t11.5 73h194z" />
    <glyph glyph-name="Tbar" unicode="&#x166;" horiz-adv-x="1143" 
d="M467 0v654h-298v168h298v462h-443v178h1093v-178h-445v-462h296v-168h-296v-654h-205z" />
    <glyph glyph-name="tbar" unicode="&#x167;" horiz-adv-x="770" 
d="M53 555v145h632v-145h-632zM555 143q43 0 87 7.5t76 19.5v-154q-34 -15 -90.5 -25.5t-115.5 -10.5q-90 0 -163 31t-116.5 106t-43.5 208v622h-153v93l160 74l71 238h124v-250h319v-155h-319v-619q0 -93 44.5 -139t119.5 -46z" />
    <glyph glyph-name="Utilde" unicode="&#x168;" horiz-adv-x="1507" 
d="M1323 1462v-946q0 -154 -63.5 -275t-191.5 -191t-322 -70q-275 0 -419.5 147.5t-144.5 392.5v942h206v-934q0 -185 92.5 -279t275.5 -94q126 0 206 45.5t118.5 129t38.5 198.5v934h204zM372 1604q6 65 24.5 115t49 84t71 51.5t88.5 17.5q45 0 86.5 -17.5t79.5 -40.5
t74 -40.5t70 -17.5q43 0 70 28.5t41 89.5h111q-13 -127 -74.5 -198t-158.5 -71q-44 0 -84.5 18t-78.5 40.5t-74.5 40.5t-72.5 18q-44 0 -70.5 -28.5t-40.5 -89.5h-111z" />
    <glyph glyph-name="utilde" unicode="&#x169;" horiz-adv-x="1279" 
d="M1107 1102v-1102h-161l-28 151h-11q-34 -57 -88 -95t-121 -57t-142 -19q-127 0 -215.5 42t-134 130.5t-45.5 228.5v721h202v-693q0 -133 57.5 -199t175.5 -66q115 0 182.5 45.5t97 133t29.5 214.5v565h202zM256 1243q6 65 24.5 115t49 84t71 51.5t88.5 17.5
q45 0 86.5 -17.5t79.5 -40.5t74 -40.5t70 -17.5q43 0 70 28.5t41 89.5h111q-13 -127 -74.5 -198t-158.5 -71q-44 0 -84.5 18t-78.5 40.5t-74.5 40.5t-72.5 18q-44 0 -70.5 -28.5t-40.5 -89.5h-111z" />
    <glyph glyph-name="Umacron" unicode="&#x16a;" horiz-adv-x="1507" 
d="M1323 1462v-946q0 -154 -63.5 -275t-191.5 -191t-322 -70q-275 0 -419.5 147.5t-144.5 392.5v942h206v-934q0 -185 92.5 -279t275.5 -94q126 0 206 45.5t118.5 129t38.5 198.5v934h204zM1063 1757v-153h-619v153h619z" />
    <glyph glyph-name="umacron" unicode="&#x16b;" horiz-adv-x="1279" 
d="M1107 1102v-1102h-161l-28 151h-11q-34 -57 -88 -95t-121 -57t-142 -19q-127 0 -215.5 42t-134 130.5t-45.5 228.5v721h202v-693q0 -133 57.5 -199t175.5 -66q115 0 182.5 45.5t97 133t29.5 214.5v565h202zM949 1396v-153h-619v153h619z" />
    <glyph glyph-name="Ubreve" unicode="&#x16c;" horiz-adv-x="1507" 
d="M1323 1462v-946q0 -154 -63.5 -275t-191.5 -191t-322 -70q-275 0 -419.5 147.5t-144.5 392.5v942h206v-934q0 -185 92.5 -279t275.5 -94q126 0 206 45.5t118.5 129t38.5 198.5v934h204zM1093 1889q-7 -85 -48.5 -149.5t-114.5 -101t-173 -36.5q-154 0 -236.5 78
t-90.5 209h121q5 -56 31.5 -84.5t71.5 -38t106 -9.5q54 0 99 10.5t74.5 39.5t36.5 82h123z" />
    <glyph glyph-name="ubreve" unicode="&#x16d;" horiz-adv-x="1279" 
d="M1107 1102v-1102h-161l-28 151h-11q-34 -57 -88 -95t-121 -57t-142 -19q-127 0 -215.5 42t-134 130.5t-45.5 228.5v721h202v-693q0 -133 57.5 -199t175.5 -66q115 0 182.5 45.5t97 133t29.5 214.5v565h202zM979 1528q-7 -85 -48.5 -149.5t-114.5 -101t-173 -36.5
q-154 0 -236.5 78t-90.5 209h121q5 -56 31.5 -84.5t71.5 -38t106 -9.5q54 0 99 10.5t74.5 39.5t36.5 82h123z" />
    <glyph glyph-name="Uring" unicode="&#x16e;" horiz-adv-x="1507" 
d="M1323 1462v-946q0 -154 -63.5 -275t-191.5 -191t-322 -70q-275 0 -419.5 147.5t-144.5 392.5v942h206v-934q0 -185 92.5 -279t275.5 -94q126 0 206 45.5t118.5 129t38.5 198.5v934h204zM755 1602q-101 0 -164.5 59t-63.5 163q0 102 63.5 161t164.5 59q98 0 165 -58.5
t67 -159.5q0 -105 -66.5 -164.5t-165.5 -59.5zM755 1710q50 0 82 30.5t32 83.5q0 52 -33 82.5t-81 30.5t-81 -30.5t-33 -82.5q0 -53 29.5 -83.5t84.5 -30.5z" />
    <glyph glyph-name="uring" unicode="&#x16f;" horiz-adv-x="1279" 
d="M1107 1102v-1102h-161l-28 151h-11q-34 -57 -88 -95t-121 -57t-142 -19q-127 0 -215.5 42t-134 130.5t-45.5 228.5v721h202v-693q0 -133 57.5 -199t175.5 -66q115 0 182.5 45.5t97 133t29.5 214.5v565h202zM641 1241q-101 0 -164.5 59t-63.5 163q0 102 63.5 161t164.5 59
q98 0 165 -58.5t67 -159.5q0 -105 -66.5 -164.5t-165.5 -59.5zM641 1349q50 0 82 30.5t32 83.5q0 52 -33 82.5t-81 30.5t-81 -30.5t-33 -82.5q0 -53 29.5 -83.5t84.5 -30.5z" />
    <glyph glyph-name="Uhungarumlaut" unicode="&#x170;" horiz-adv-x="1507" 
d="M1323 1462v-946q0 -154 -63.5 -275t-191.5 -191t-322 -70q-275 0 -419.5 147.5t-144.5 392.5v942h206v-934q0 -185 92.5 -279t275.5 -94q126 0 206 45.5t118.5 129t38.5 198.5v934h204zM1259 1930v-20q-17 -28 -50 -68.5t-74.5 -85t-83.5 -85t-77 -69.5h-113v25
q30 39 64.5 92.5t67.5 109t54 101.5h212zM892 1930v-20q-17 -28 -50 -68.5t-74.5 -85t-83.5 -85t-77 -69.5h-113v25q30 39 64 92.5t66.5 109t55.5 101.5h212z" />
    <glyph glyph-name="uhungarumlaut" unicode="&#x171;" horiz-adv-x="1279" 
d="M1107 1102v-1102h-161l-28 151h-11q-34 -57 -88 -95t-121 -57t-142 -19q-127 0 -215.5 42t-134 130.5t-45.5 228.5v721h202v-693q0 -133 57.5 -199t175.5 -66q115 0 182.5 45.5t97 133t29.5 214.5v565h202zM1144 1569v-20q-17 -28 -50 -68.5t-74.5 -85t-83.5 -85
t-77 -69.5h-113v25q30 39 64.5 92.5t67.5 109t54 101.5h212zM777 1569v-20q-17 -28 -50 -68.5t-74.5 -85t-83.5 -85t-77 -69.5h-113v25q30 39 64 92.5t66.5 109t55.5 101.5h212z" />
    <glyph glyph-name="Uogonek" unicode="&#x172;" horiz-adv-x="1507" 
d="M958 -218q0 -59 25 -85.5t68 -26.5q33 0 58 5t43 9v-125q-29 -8 -59.5 -13.5t-72.5 -5.5q-108 0 -162.5 55.5t-54.5 161.5q0 66 32 129t80 115t96 84l137 21q-63 -67 -105.5 -122t-63.5 -103.5t-21 -98.5zM1323 1462v-946q0 -154 -63.5 -275t-191.5 -191t-322 -70
q-275 0 -419.5 147.5t-144.5 392.5v942h206v-934q0 -185 92.5 -279t275.5 -94q126 0 206 45.5t118.5 129t38.5 198.5v934h204z" />
    <glyph glyph-name="uogonek" unicode="&#x173;" horiz-adv-x="1279" 
d="M1107 1102v-1102h-161l-28 151h-11q-34 -57 -88 -95t-121 -57t-142 -19q-127 0 -215.5 42t-134 130.5t-45.5 228.5v721h202v-693q0 -133 57.5 -199t175.5 -66q115 0 182.5 45.5t97 133t29.5 214.5v565h202zM922 -237q0 -46 24 -69.5t68 -23.5q32 0 58 5t44 9v-125
q-29 -8 -60 -13.5t-73 -5.5q-107 0 -162 53.5t-55 146.5q0 58 29.5 112.5t75 100.5t94.5 78l102 -31q-70 -64 -107.5 -120t-37.5 -117z" />
    <glyph glyph-name="Wcircumflex" unicode="&#x174;" horiz-adv-x="1913" 
d="M1891 1462l-386 -1462h-217l-267 930q-11 37 -22 80t-21.5 85.5t-17.5 76.5t-10 52q-2 -18 -8.5 -51.5t-15.5 -75.5t-20 -85.5t-22 -82.5l-261 -929h-216l-384 1462h209l223 -887q11 -44 21.5 -89.5t19.5 -91t16 -88t13 -80.5q5 39 13 83.5t17.5 90.5t20.5 91t23 86
l250 885h205l259 -890q12 -42 23.5 -88t21 -92t17 -88t13.5 -78q7 50 17.5 108t24.5 120t28 122l223 886h210zM1066 1929q26 -45 71.5 -101.5t95.5 -110t88 -92.5v-23h-139q-54 34 -112.5 83.5t-112.5 104.5q-54 -55 -111 -103.5t-111 -84.5h-136v23q38 40 86.5 93.5
t93.5 109.5t72 101h215z" />
    <glyph glyph-name="wcircumflex" unicode="&#x175;" horiz-adv-x="1629" 
d="M1070 2l-168 576q-11 39 -23.5 86t-24.5 94t-21.5 87.5t-14.5 65.5h-8q-5 -25 -14 -65.5t-20.5 -88t-24 -95.5t-24.5 -87l-176 -573h-222l-306 1101h205l151 -577q15 -58 29 -120t24 -117t15 -94h8q5 26 12.5 64.5t16.5 81t19.5 82.5t19.5 70l186 610h218l179 -609
q13 -44 27 -98.5t25 -107.5t15 -91h8q4 34 15 88t25 117.5t30 123.5l153 577h202l-308 -1101h-228zM925 1568q26 -45 71.5 -101.5t95.5 -110t88 -92.5v-23h-139q-54 34 -112.5 83.5t-112.5 104.5q-54 -55 -111 -103.5t-111 -84.5h-136v23q38 40 86.5 93.5t93.5 109.5t72 101
h215z" />
    <glyph glyph-name="Ycircumflex" unicode="&#x176;" horiz-adv-x="1178" 
d="M590 762l368 700h220l-486 -894v-568h-205v559l-487 903h224zM699 1929q26 -45 71.5 -101.5t95.5 -110t88 -92.5v-23h-139q-54 34 -112.5 83.5t-112.5 104.5q-54 -55 -111 -103.5t-111 -84.5h-136v23q38 40 86.5 93.5t93.5 109.5t72 101h215z" />
    <glyph glyph-name="ycircumflex" unicode="&#x177;" horiz-adv-x="1061" 
d="M2 1102h217l234 -635q18 -49 33.5 -95.5t27 -90t18.5 -85.5h7q12 51 34 124t48 148l224 634h216l-476 -1258q-39 -105 -94.5 -180.5t-131.5 -116t-180 -40.5q-48 0 -84.5 5.5t-62.5 12.5v160q22 -5 53.5 -9t65.5 -4q63 0 108.5 24.5t78 69.5t54.5 105l50 130zM640 1568
q26 -45 71.5 -101.5t95.5 -110t88 -92.5v-23h-139q-54 34 -112.5 83.5t-112.5 104.5q-54 -55 -111 -103.5t-111 -84.5h-136v23q38 40 86.5 93.5t93.5 109.5t72 101h215z" />
    <glyph glyph-name="Ydieresis" unicode="&#x178;" horiz-adv-x="1178" 
d="M590 762l368 700h220l-486 -894v-568h-205v559l-487 903h224zM291 1758q0 55 30 80.5t73 25.5t73.5 -25.5t30.5 -80.5q0 -54 -30.5 -80.5t-73.5 -26.5t-73 26.5t-30 80.5zM680 1758q0 55 29.5 80.5t72.5 25.5t74 -25.5t31 -80.5q0 -54 -31 -80.5t-74 -26.5t-72.5 26.5
t-29.5 80.5z" />
    <glyph glyph-name="Zacute" unicode="&#x179;" horiz-adv-x="1176" 
d="M1104 0h-1033v146l765 1138h-740v178h988v-146l-766 -1138h786v-178zM912 1930v-20q-22 -29 -59.5 -69.5t-82.5 -85t-90 -84.5t-82 -69h-134v25q32 38 71.5 91t77.5 109.5t63 102.5h236z" />
    <glyph glyph-name="zacute" unicode="&#x17a;" horiz-adv-x="970" 
d="M894 0h-820v128l580 818h-544v156h770v-142l-571 -805h585v-155zM800 1569v-20q-22 -29 -59.5 -69.5t-82.5 -85t-90 -84.5t-82 -69h-134v25q32 38 71.5 91t77.5 109.5t63 102.5h236z" />
    <glyph glyph-name="Zdotaccent" unicode="&#x17b;" horiz-adv-x="1176" 
d="M1104 0h-1033v146l765 1138h-740v178h988v-146l-766 -1138h786v-178zM600 1880q47 0 81.5 -28t34.5 -91t-34.5 -91.5t-81.5 -28.5q-50 0 -83.5 28.5t-33.5 91.5t33.5 91t83.5 28z" />
    <glyph glyph-name="zdotaccent" unicode="&#x17c;" horiz-adv-x="970" 
d="M894 0h-820v128l580 818h-544v156h770v-142l-571 -805h585v-155zM489 1519q47 0 81.5 -28t34.5 -91t-34.5 -91.5t-81.5 -28.5q-50 0 -83.5 28.5t-33.5 91.5t33.5 91t83.5 28z" />
    <glyph glyph-name="Zcaron" unicode="&#x17d;" horiz-adv-x="1176" 
d="M1104 0h-1033v146l765 1138h-740v178h988v-146l-766 -1138h786v-178zM488 1602q-27 46 -72 101t-94 108.5t-86 92.5v25h136q54 -36 112.5 -85.5t109.5 -105.5q54 56 112.5 106t112.5 85h139v-25q-38 -39 -88 -92t-95.5 -108.5t-71.5 -101.5h-215z" />
    <glyph glyph-name="zcaron" unicode="&#x17e;" horiz-adv-x="970" 
d="M894 0h-820v128l580 818h-544v156h770v-142l-571 -805h585v-155zM377 1241q-27 46 -72 101t-94 108.5t-86 92.5v25h136q54 -36 112.5 -85.5t109.5 -105.5q54 56 112.5 106t112.5 85h139v-25q-38 -39 -88 -92t-95.5 -108.5t-71.5 -101.5h-215z" />
    <glyph glyph-name="longs" unicode="&#x17f;" horiz-adv-x="692" 
d="M546 1402q-85 0 -129 -52t-44 -166v-1184h-202v1188q0 139 45.5 222t127.5 120t193 37q71 0 124 -12t94 -27l-50 -155q-32 11 -73.5 20t-85.5 9z" />
    <glyph glyph-name="florin" unicode="&#x192;" horiz-adv-x="1171" 
d="M827 1483q70 0 124.5 -13.5t94.5 -28.5l-48 -154q-34 11 -73 21t-84 10q-84 0 -123 -47.5t-39 -161.5v-127h265v-154h-262v-962q0 -121 -38 -200.5t-113.5 -118.5t-187.5 -39q-42 0 -82 6.5t-69 14.5v164q31 -9 62 -14t65 -5q79 0 119 44t40 160v950h-202v96l202 63v125
q0 140 41 221t119.5 115.5t188.5 34.5z" />
    <glyph glyph-name="Ohorn" unicode="&#x1a0;" horiz-adv-x="1622" 
d="M1477 733q0 -169 -42 -307.5t-127 -238t-211 -153.5t-295 -54q-173 0 -300.5 54t-211.5 154t-125 239t-41 308q0 225 74 394t225.5 262.5t382.5 93.5q169 0 297 -56t212 -157q50 18 77 57.5t38 97t11 129.5h208l14 -21q-24 -136 -84.5 -236t-186.5 -149q43 -86 64 -190.5
t21 -226.5zM339 733q0 -178 49 -307.5t151.5 -200t262.5 -70.5q162 0 263.5 70.5t149 200t47.5 307.5q0 269 -109.5 422t-347.5 153q-161 0 -264 -69.5t-152.5 -198.5t-49.5 -307z" />
    <glyph glyph-name="ohorn" unicode="&#x1a1;" horiz-adv-x="1286" 
d="M1134 553q0 -182 -62.5 -310t-178.5 -195.5t-275 -67.5q-149 0 -264 67.5t-180 195.5t-65 310q0 272 138 420.5t377 148.5q110 0 203 -36.5t159 -104.5q58 18 89 58.5t42 99.5t11 131h207l14 -22q-17 -95 -49 -171t-88 -129.5t-144 -83.5q32 -64 49 -142t17 -169z
M315 553q0 -133 32 -224t100 -137.5t175 -46.5t174.5 47t99 138t31.5 223q0 131 -31.5 220.5t-99 135.5t-176.5 46q-159 0 -232 -102t-73 -300z" />
    <glyph glyph-name="Uhorn" unicode="&#x1af;" horiz-adv-x="1640" 
d="M1323 1462v-197q61 13 95 51.5t48 99t14 140.5h206l14 -21q-13 -76 -37 -142.5t-66 -119.5t-108.5 -89.5t-165.5 -52.5v-615q0 -154 -60.5 -275t-185.5 -191t-320 -70q-280 0 -427.5 147.5t-147.5 392.5v942h206v-941q0 -179 94 -272.5t280 -93.5q126 0 205 45
t115.5 127.5t36.5 192.5v942h204z" />
    <glyph glyph-name="uhorn" unicode="&#x1b0;" horiz-adv-x="1407" 
d="M1466 1271l14 -22q-12 -75 -36 -143t-66 -122.5t-108 -90.5t-163 -48v-845h-161l-28 151h-11q-35 -57 -88 -95t-119.5 -57t-140.5 -19q-129 0 -218 42t-134.5 130.5t-45.5 228.5v719h202v-691q0 -133 57.5 -199t175.5 -66q172 0 240.5 101.5t68.5 291.5v563h202v-121
q60 14 93 53t46 100t13 139h207z" />
    <glyph glyph-name="uni01EA" unicode="&#x1ea;" horiz-adv-x="1602" 
d="M1479 733q0 -169 -43 -307.5t-127.5 -238t-211 -153.5t-295.5 -54q-172 0 -299.5 54t-211.5 154t-125.5 239t-41.5 308q0 225 74 394t225.5 262.5t381.5 93.5q222 0 372 -93t226 -261.5t76 -397.5zM339 733q0 -178 49.5 -307.5t152 -200t261.5 -70.5q161 0 263 70.5
t150 200t48 307.5q0 270 -110 422.5t-348 152.5q-160 0 -263 -69.5t-153 -198t-50 -307.5zM794 -237q0 -46 24 -69.5t68 -23.5q32 0 58 5t44 9v-125q-29 -8 -60 -13.5t-73 -5.5q-107 0 -162 53.5t-55 146.5q0 58 29.5 112.5t75 100.5t94.5 78l102 -31q-70 -64 -107.5 -120
t-37.5 -117z" />
    <glyph glyph-name="uni01EB" unicode="&#x1eb;" horiz-adv-x="1241" 
d="M1134 553q0 -136 -35.5 -242.5t-103 -180t-162.5 -112t-215 -38.5q-112 0 -205.5 38.5t-161.5 112t-105 180t-37 242.5q0 181 62 308.5t177.5 194t275.5 66.5q152 0 267 -67t179 -194t64 -308zM315 553q0 -127 32.5 -218.5t100 -140.5t174.5 -49q105 0 173 49t100 140.5
t32 218.5q0 126 -32 216t-99.5 138t-175.5 48q-158 0 -231.5 -105.5t-73.5 -296.5zM614 -237q0 -46 24 -69.5t68 -23.5q32 0 58 5t44 9v-125q-29 -8 -60 -13.5t-73 -5.5q-107 0 -162 53.5t-55 146.5q0 58 29.5 112.5t75 100.5t94.5 78l102 -31q-70 -64 -107.5 -120
t-37.5 -117z" />
    <glyph glyph-name="uni01EC" unicode="&#x1ec;" horiz-adv-x="1602" 
d="M1479 733q0 -169 -43 -307.5t-127.5 -238t-211 -153.5t-295.5 -54q-172 0 -299.5 54t-211.5 154t-125.5 239t-41.5 308q0 225 74 394t225.5 262.5t381.5 93.5q222 0 372 -93t226 -261.5t76 -397.5zM339 733q0 -178 49.5 -307.5t152 -200t261.5 -70.5q161 0 263 70.5
t150 200t48 307.5q0 270 -110 422.5t-348 152.5q-160 0 -263 -69.5t-153 -198t-50 -307.5zM1111 1757v-153h-619v153h619zM815 -237q0 -46 24 -69.5t68 -23.5q32 0 58 5t44 9v-125q-29 -8 -60 -13.5t-73 -5.5q-107 0 -162 53.5t-55 146.5q0 58 29.5 112.5t75 100.5t94.5 78
l102 -31q-70 -64 -107.5 -120t-37.5 -117z" />
    <glyph glyph-name="uni01ED" unicode="&#x1ed;" horiz-adv-x="1241" 
d="M1134 553q0 -136 -35.5 -242.5t-103 -180t-162.5 -112t-215 -38.5q-112 0 -205.5 38.5t-161.5 112t-105 180t-37 242.5q0 181 62 308.5t177.5 194t275.5 66.5q152 0 267 -67t179 -194t64 -308zM315 553q0 -127 32.5 -218.5t100 -140.5t174.5 -49q105 0 173 49t100 140.5
t32 218.5q0 126 -32 216t-99.5 138t-175.5 48q-158 0 -231.5 -105.5t-73.5 -296.5zM930 1396v-153h-619v153h619zM614 -237q0 -46 24 -69.5t68 -23.5q32 0 58 5t44 9v-125q-29 -8 -60 -13.5t-73 -5.5q-107 0 -162 53.5t-55 146.5q0 58 29.5 112.5t75 100.5t94.5 78l102 -31
q-70 -64 -107.5 -120t-37.5 -117z" />
    <glyph glyph-name="uni01F0" unicode="&#x1f0;" horiz-adv-x="544" 
d="M50 -492q-51 0 -93.5 7.5t-73.5 17.5v161q33 -10 65 -15t72 -5q67 0 109 37t42 137v1254h201v-1262q0 -100 -33.5 -175t-105 -116t-183.5 -41zM164 1241q-27 46 -72 101t-94 108.5t-86 92.5v25h136q54 -36 112.5 -85.5t109.5 -105.5q54 56 112.5 106t112.5 85h139v-25
q-38 -39 -88 -92t-95.5 -108.5t-71.5 -101.5h-215z" />
    <glyph glyph-name="Aringacute" unicode="&#x1fa;" horiz-adv-x="1326" 
d="M-1 0l525 1257q-43 26 -67.5 71t-24.5 107q0 104 64 163t164 59q99 0 166.5 -58.5t67.5 -161.5q0 -62 -24.5 -107t-67.5 -71l525 -1259h-216l-157 384h-589l-153 -384h-213zM427 563h473l-159 396l-25 65t-29.5 81t-24.5 77q-7 -26 -18 -58t-21.5 -64t-20.5 -59.5
t-16 -44.5zM660 1320q52 0 83.5 30t31.5 85q0 54 -32 84t-83 30q-50 0 -82 -30t-32 -84q0 -53 30.5 -84t83.5 -31zM564 1710v18q30 32 63 73t63.5 83.5t52.5 79.5h236v-15q-17 -23 -49.5 -54t-73 -65t-82 -65.5t-76.5 -54.5h-134z" />
    <glyph glyph-name="aringacute" unicode="&#x1fb;" horiz-adv-x="1163" 
d="M593 1121q204 0 305 -90.5t101 -285.5v-745h-144l-39 160h-8q-46 -60 -96 -100t-115.5 -60t-159.5 -20q-100 0 -178 36t-122.5 108.5t-44.5 184.5q0 168 129 255t391 95l190 8v62q0 129 -57.5 182t-160.5 53q-85 0 -163 -24.5t-150 -58.5l-64 146q78 40 177.5 67
t208.5 27zM800 535l-154 -7q-191 -7 -268.5 -63.5t-77.5 -157.5q0 -88 53 -129t140 -41q134 0 220.5 75.5t86.5 223.5v99zM592 1560q-50 0 -82 -30.5t-32 -82.5q0 -53 29.5 -84t84.5 -31q49 0 80.5 31t31.5 84q0 52 -32 82.5t-80 30.5zM592 1666q66 0 118 -26.5t82.5 -75
t30.5 -116.5q0 -105 -66 -164t-165 -59q-101 0 -165 58.5t-64 163.5q0 102 64 160.5t165 58.5zM920 1961v-12q-23 -26 -79 -64t-120 -76.5t-111 -63.5h-140v15q29 28 62.5 63t64.5 71t53 67h270z" />
    <glyph glyph-name="AEacute" unicode="&#x1fc;" horiz-adv-x="1821" 
d="M1706 0h-791v435h-502l-204 -435h-210l679 1462h1028v-176h-586v-435h548v-174h-548v-500h586v-177zM491 613h424v669h-118zM1317 1930v-20q-22 -29 -59.5 -69.5t-82.5 -85t-90 -84.5t-82 -69h-134v25q32 38 71.5 91t77.5 109.5t63 102.5h236z" />
    <glyph glyph-name="aeacute" unicode="&#x1fd;" horiz-adv-x="1794" 
d="M1255 1122q135 0 233.5 -61.5t151.5 -173t53 -261.5v-116h-713q4 -184 84.5 -275.5t229.5 -91.5q101 0 182 20t165 59v-169q-83 -38 -164.5 -55.5t-190.5 -17.5q-94 0 -174 26.5t-142 78t-104 127.5q-49 -73 -105.5 -125t-133 -79.5t-186.5 -27.5q-99 0 -178 36
t-125 108.5t-46 184.5t55 187.5t165.5 116.5t276.5 46l187 8v74q0 122 -58.5 172.5t-158.5 50.5q-81 0 -158.5 -23.5t-148.5 -58.5l-64 145q77 41 179 67.5t206 26.5q125 0 208.5 -42t126.5 -134q57 84 143.5 130.5t203.5 46.5zM773 535l-146 -7q-180 -7 -253.5 -63.5
t-73.5 -157.5q0 -88 50.5 -129t134.5 -41q83 0 148 33.5t102.5 100t37.5 165.5v99zM1252 966q-117 0 -187 -78t-80 -229h504q0 91 -25.5 160.5t-78.5 108t-133 38.5zM1226 1569v-20q-22 -29 -59.5 -69.5t-82.5 -85t-90 -84.5t-82 -69h-134v25q32 38 71.5 91t77.5 109.5
t63 102.5h236z" />
    <glyph glyph-name="Oslashacute" unicode="&#x1fe;" horiz-adv-x="1602" 
d="M1479 733q0 -169 -43 -307.5t-127.5 -238t-211 -153.5t-295.5 -54q-113 0 -206 23.5t-166 69.5l-99 -142l-127 84l105 151q-94 100 -139.5 244.5t-45.5 324.5q0 225 74 394t225.5 262.5t381.5 93.5q106 0 197 -23.5t165 -66.5l95 135l126 -85l-102 -144q95 -98 144 -242
t49 -326zM1263 733q0 123 -24 223t-72 172l-629 -899q51 -35 117 -54.5t147 -19.5q161 0 263 70.5t150 200t48 307.5zM339 733q0 -120 23 -218.5t69 -171.5l629 895q-50 34 -113.5 52t-141.5 18q-160 0 -263 -69.5t-153 -198t-50 -307.5zM1121 1930v-20q-22 -29 -59.5 -69.5
t-82.5 -85t-90 -84.5t-82 -69h-134v25q32 38 71.5 91t77.5 109.5t63 102.5h236z" />
    <glyph glyph-name="oslashacute" unicode="&#x1ff;" horiz-adv-x="1241" 
d="M1134 553q0 -182 -62.5 -310t-178.5 -195.5t-275 -67.5q-76 0 -141 17t-121 50l-83 -116l-120 82l90 124q-64 75 -99 179t-35 237q0 272 138 420.5t377 148.5q76 0 143.5 -18.5t122.5 -53.5l78 110l122 -82l-87 -120q62 -73 96.5 -174.5t34.5 -230.5zM315 553
q0 -74 11 -135.5t34 -109.5l430 599q-33 23 -75.5 35.5t-94.5 12.5q-158 0 -231.5 -105.5t-73.5 -296.5zM927 553q0 69 -10.5 128t-31.5 105l-428 -596q31 -22 73 -33.5t92 -11.5q105 0 173 49t100 140.5t32 218.5zM938 1569v-20q-22 -29 -59.5 -69.5t-82.5 -85t-90 -84.5
t-82 -69h-134v25q32 38 71.5 91t77.5 109.5t63 102.5h236z" />
    <glyph glyph-name="uni0218" unicode="&#x218;" horiz-adv-x="1124" 
d="M1031 393q0 -130 -64.5 -222.5t-181.5 -141.5t-278 -49q-81 0 -154.5 8.5t-136.5 24.5t-114 40v194q83 -34 192 -63.5t225 -29.5q101 0 169.5 27.5t103.5 77.5t35 120t-34 117.5t-107.5 87.5t-192.5 85q-83 30 -151 68.5t-117.5 88.5t-76.5 117.5t-27 155.5
q0 121 59.5 207t166.5 131.5t248 45.5q116 0 216.5 -23t191.5 -63l-65 -170q-85 35 -171 57t-178 22q-85 0 -143.5 -25t-89 -71t-30.5 -109q0 -71 32 -118t101 -85t180 -81q125 -48 212.5 -102t133.5 -130t46 -192zM669 -125v-18q-12 -40 -36.5 -94.5t-56.5 -111t-68 -104.5
h-112v25q14 35 30 89.5t30 112t19 101.5h194z" />
    <glyph glyph-name="uni0219" unicode="&#x219;" horiz-adv-x="987" 
d="M898 308q0 -107 -52.5 -180.5t-152.5 -110.5t-240 -37q-116 0 -200 17.5t-152 50.5v178q73 -35 169 -62t188 -27q129 0 186.5 41t57.5 111q0 41 -23 72.5t-80.5 63t-164.5 72.5q-105 41 -179.5 82t-113.5 99t-39 150q0 143 114.5 218.5t302.5 75.5q100 0 188.5 -20
t169.5 -56l-65 -155q-72 31 -148 51.5t-155 20.5q-103 0 -157.5 -33t-54.5 -91q0 -45 25.5 -75t85.5 -58.5t162 -67.5q101 -38 174.5 -79t113.5 -100t40 -151zM629 -125v-18q-12 -40 -36.5 -94.5t-56.5 -111t-68 -104.5h-112v25q14 35 30 89.5t30 112t19 101.5h194z" />
    <glyph glyph-name="uni021A" unicode="&#x21a;" horiz-adv-x="1143" 
d="M674 0h-206v1285h-444v177h1093v-177h-443v-1285zM706 -125v-18q-12 -40 -36.5 -94.5t-56.5 -111t-68 -104.5h-112v25q14 35 30 89.5t30 112t19 101.5h194z" />
    <glyph glyph-name="uni021B" unicode="&#x21b;" horiz-adv-x="770" 
d="M555 143q43 0 87 7.5t76 19.5v-154q-34 -15 -90.5 -25.5t-115.5 -10.5q-90 0 -163 31t-116.5 106t-43.5 208v622h-153v93l160 74l71 238h124v-250h319v-155h-319v-619q0 -93 44.5 -139t119.5 -46zM583 -125v-18q-12 -40 -36.5 -94.5t-56.5 -111t-68 -104.5h-112v25
q14 35 30 89.5t30 112t19 101.5h194z" />
    <glyph glyph-name="uni0237" unicode="&#x237;" horiz-adv-x="544" 
d="M50 -492q-51 0 -93.5 7.5t-73.5 17.5v161q33 -10 65 -15t72 -5q67 0 109 37t42 137v1254h201v-1262q0 -100 -33.5 -175t-105 -116t-183.5 -41z" />
    <glyph glyph-name="uni0259" unicode="&#x259;" horiz-adv-x="1165" 
d="M520 1122q161 0 282 -64t188 -189.5t67 -309.5q0 -182 -61.5 -311t-172.5 -198.5t-261 -69.5q-143 0 -246.5 61.5t-158.5 173.5t-55 264v114h748q-4 176 -91.5 270.5t-247.5 94.5q-104 0 -186 -19t-171 -59v169q83 38 167.5 55.5t198.5 17.5zM846 442h-541
q1 -90 28.5 -159t84.5 -108t145 -39q123 0 197 79.5t86 226.5z" />
    <glyph glyph-name="uni02BC" unicode="&#x2bc;" horiz-adv-x="371" 
d="M331 1462l15 -22q-18 -73 -46 -156t-61.5 -166t-66.5 -157h-146q15 58 30 123t29 132t25.5 129.5t19.5 116.5h201z" />
    <glyph glyph-name="circumflex" unicode="&#x2c6;" horiz-adv-x="886" 
d="M549 1568q26 -45 71.5 -101.5t95.5 -110t88 -92.5v-23h-139q-54 34 -112.5 83.5t-112.5 104.5q-54 -55 -111 -103.5t-111 -84.5h-136v23q38 40 86.5 93.5t93.5 109.5t72 101h215z" />
    <glyph glyph-name="caron" unicode="&#x2c7;" horiz-adv-x="886" 
d="M334 1241q-27 46 -72 101t-94 108.5t-86 92.5v25h136q54 -36 112.5 -85.5t109.5 -105.5q54 56 112.5 106t112.5 85h139v-25q-38 -39 -88 -92t-95.5 -108.5t-71.5 -101.5h-215z" />
    <glyph glyph-name="macron" unicode="&#x2c9;" horiz-adv-x="783" 
d="M701 1396v-153h-619v153h619z" />
    <glyph glyph-name="breve" unicode="&#x2d8;" horiz-adv-x="827" 
d="M745 1528q-7 -85 -48.5 -149.5t-114.5 -101t-173 -36.5q-154 0 -236.5 78t-90.5 209h121q5 -56 31.5 -84.5t71.5 -38t106 -9.5q54 0 99 10.5t74.5 39.5t36.5 82h123z" />
    <glyph glyph-name="dotaccent" unicode="&#x2d9;" horiz-adv-x="397" 
d="M199 1519q47 0 81.5 -28t34.5 -91t-34.5 -91.5t-81.5 -28.5q-50 0 -83.5 28.5t-33.5 91.5t33.5 91t83.5 28z" />
    <glyph glyph-name="ring" unicode="&#x2da;" horiz-adv-x="624" 
d="M310 1241q-101 0 -164.5 59t-63.5 163q0 102 63.5 161t164.5 59q98 0 165 -58.5t67 -159.5q0 -105 -66.5 -164.5t-165.5 -59.5zM310 1349q50 0 82 30.5t32 83.5q0 52 -33 82.5t-81 30.5t-81 -30.5t-33 -82.5q0 -53 29.5 -83.5t84.5 -30.5z" />
    <glyph glyph-name="ogonek" unicode="&#x2db;" horiz-adv-x="514" 
d="M238 -237q0 -46 24 -69.5t68 -23.5q32 0 58 5t44 9v-125q-29 -8 -60 -13.5t-73 -5.5q-107 0 -162 53.5t-55 146.5q0 58 29.5 112.5t75 100.5t94.5 78l102 -31q-70 -64 -107.5 -120t-37.5 -117z" />
    <glyph glyph-name="tilde" unicode="&#x2dc;" horiz-adv-x="928" 
d="M82 1243q6 65 24.5 115t49 84t71 51.5t88.5 17.5q45 0 86.5 -17.5t79.5 -40.5t74 -40.5t70 -17.5q43 0 70 28.5t41 89.5h111q-13 -127 -74.5 -198t-158.5 -71q-44 0 -84.5 18t-78.5 40.5t-74.5 40.5t-72.5 18q-44 0 -70.5 -28.5t-40.5 -89.5h-111z" />
    <glyph glyph-name="hungarumlaut" unicode="&#x2dd;" horiz-adv-x="929" 
d="M847 1569v-20q-17 -28 -50 -68.5t-74.5 -85t-83.5 -85t-77 -69.5h-113v25q30 39 64.5 92.5t67.5 109t54 101.5h212zM480 1569v-20q-17 -28 -50 -68.5t-74.5 -85t-83.5 -85t-77 -69.5h-113v25q30 39 64 92.5t66.5 109t55.5 101.5h212z" />
    <glyph glyph-name="uni02F3" unicode="&#x2f3;" horiz-adv-x="682" 
d="M338 -568q-101 0 -164.5 59t-63.5 162t63 162t165 59q97 0 165 -59t68 -160q0 -105 -67 -164t-166 -59zM338 -460q50 0 82 30.5t32 82.5q0 54 -33.5 84t-80.5 30q-50 0 -82 -30t-32 -84q0 -52 29 -82.5t85 -30.5z" />
    <glyph glyph-name="gravecomb" unicode="&#x300;" 
d="M-786 1569q26 -46 63 -102.5t77.5 -109.5t73.5 -91v-25h-135q-37 29 -82 69t-90 84.5t-82 85t-59 69.5v20h234z" />
    <glyph glyph-name="acutecomb" unicode="&#x301;" 
d="M-200 1569v-20q-22 -29 -59.5 -69.5t-82.5 -85t-90 -84.5t-82 -69h-134v25q32 38 71.5 91t77.5 109.5t63 102.5h236z" />
    <glyph glyph-name="uni0302" unicode="&#x302;" 
d="M107 1568q26 -45 71.5 -101.5t95.5 -110t88 -92.5v-23h-139q-54 34 -112.5 83.5t-112.5 104.5q-54 -55 -111 -103.5t-111 -84.5h-136v23q38 40 86.5 93.5t93.5 109.5t72 101h215z" />
    <glyph glyph-name="tildecomb" unicode="&#x303;" 
d="M-1014 1243q6 65 24.5 115t49 84t71 51.5t88.5 17.5q45 0 86.5 -17.5t79.5 -40.5t74 -40.5t70 -17.5q43 0 70 28.5t41 89.5h111q-13 -127 -74.5 -198t-158.5 -71q-44 0 -84.5 18t-78.5 40.5t-74.5 40.5t-72.5 18q-44 0 -70.5 -28.5t-40.5 -89.5h-111z" />
    <glyph glyph-name="uni0304" unicode="&#x304;" 
d="M310 1396v-153h-619v153h619z" />
    <glyph glyph-name="uni0306" unicode="&#x306;" 
d="M334 1528q-7 -85 -48.5 -149.5t-114.5 -101t-173 -36.5q-154 0 -236.5 78t-90.5 209h121q5 -56 31.5 -84.5t71.5 -38t106 -9.5q54 0 99 10.5t74.5 39.5t36.5 82h123z" />
    <glyph glyph-name="uni0307" unicode="&#x307;" 
d="M2 1519q47 0 81.5 -28t34.5 -91t-34.5 -91.5t-81.5 -28.5q-50 0 -83.5 28.5t-33.5 91.5t33.5 91t83.5 28z" />
    <glyph glyph-name="uni0308" unicode="&#x308;" 
d="M-298 1397q0 55 30 80.5t73 25.5t73.5 -25.5t30.5 -80.5q0 -54 -30.5 -80.5t-73.5 -26.5t-73 26.5t-30 80.5zM91 1397q0 55 29.5 80.5t72.5 25.5t74 -25.5t31 -80.5q0 -54 -31 -80.5t-74 -26.5t-72.5 26.5t-29.5 80.5z" />
    <glyph glyph-name="hookabovecomb" unicode="&#x309;" 
d="M-386 1495q0 -77 -45.5 -121t-119.5 -62l-10 -101h-121l-16 166q77 13 116.5 38t39.5 71q0 44 -34.5 62t-86.5 18q-31 0 -60 -3.5t-51 -9.5v117q22 7 55.5 11.5t74.5 4.5q126 0 192 -48t66 -143z" />
    <glyph glyph-name="uni030A" unicode="&#x30a;" 
d="M3 1241q-101 0 -164.5 59t-63.5 163q0 102 63.5 161t164.5 59q98 0 165 -58.5t67 -159.5q0 -105 -66.5 -164.5t-165.5 -59.5zM3 1349q50 0 82 30.5t32 83.5q0 52 -33 82.5t-81 30.5t-81 -30.5t-33 -82.5q0 -53 29.5 -83.5t84.5 -30.5z" />
    <glyph glyph-name="uni030B" unicode="&#x30b;" 
d="M500 1569v-20q-17 -28 -50 -68.5t-74.5 -85t-83.5 -85t-77 -69.5h-113v25q30 39 64.5 92.5t67.5 109t54 101.5h212zM133 1569v-20q-17 -28 -50 -68.5t-74.5 -85t-83.5 -85t-77 -69.5h-113v25q30 39 64 92.5t66.5 109t55.5 101.5h212z" />
    <glyph glyph-name="uni030C" unicode="&#x30c;" 
d="M-108 1241q-27 46 -72 101t-94 108.5t-86 92.5v25h136q54 -36 112.5 -85.5t109.5 -105.5q54 56 112.5 106t112.5 85h139v-25q-38 -39 -88 -92t-95.5 -108.5t-71.5 -101.5h-215z" />
    <glyph glyph-name="uni030F" unicode="&#x30f;" 
d="M-502 1569q22 -46 53 -101.5t64.5 -109t62.5 -92.5v-25h-112q-34 29 -75.5 69.5t-82 85t-73.5 85t-49 68.5v20h212zM-868 1569q22 -46 52.5 -101.5t64 -109t62.5 -92.5v-25h-112q-34 29 -76 69.5t-82 85t-73 85t-50 68.5v20h214z" />
    <glyph glyph-name="uni0312" unicode="&#x312;" 
d="M-156 961l-12 22q18 73 46 156.5t61 167t66 155.5h147q-20 -78 -40.5 -167t-37 -176t-27.5 -158h-203z" />
    <glyph glyph-name="dotbelowcomb" unicode="&#x323;" 
d="M-618 -371q-48 0 -82 28.5t-34 90.5q0 64 34 92t82 28q50 0 84 -28t34 -92q0 -62 -34 -90.5t-84 -28.5z" />
    <glyph glyph-name="uni0326" unicode="&#x326;" 
d="M137 -125v-18q-12 -40 -36.5 -94.5t-56.5 -111t-68 -104.5h-112v25q14 35 30 89.5t30 112t19 101.5h194z" />
    <glyph glyph-name="uni0327" unicode="&#x327;" 
d="M206 -277q0 -101 -73 -158t-226 -57q-34 0 -64 4t-50 10v120q21 -4 54 -8t63 -4q64 0 99.5 19.5t35.5 67.5q0 51 -49.5 77t-134.5 36l86 170h131l-47 -99q48 -11 87.5 -33t63.5 -57.5t24 -87.5z" />
    <glyph glyph-name="uni0328" unicode="&#x328;" 
d="M-18 -237q0 -46 24 -69.5t68 -23.5q32 0 58 5t44 9v-125q-29 -8 -60 -13.5t-73 -5.5q-107 0 -162 53.5t-55 146.5q0 58 29.5 112.5t75 100.5t94.5 78l102 -31q-70 -64 -107.5 -120t-37.5 -117z" />
    <glyph glyph-name="tonos" unicode="&#x384;" horiz-adv-x="1182" 
d="M510 1241v28q14 38 28 85t26 98.5t22 101t15 90.5h205v-22q-13 -49 -41.5 -115.5t-63 -136.5t-70.5 -129h-121z" />
    <glyph glyph-name="dieresistonos" unicode="&#x385;" horiz-adv-x="1182" 
d="M805 1716v-20q-20 -43 -50.5 -96t-67 -108t-74.5 -104h-95v23q15 42 31.5 95t31 108.5t22.5 101.5h202zM366 1503q43 0 71 -25.5t28 -80.5q0 -54 -28 -80.5t-71 -26.5t-71 26.5t-28 80.5q0 55 28 80.5t71 25.5zM837 1503q41 0 70.5 -25.5t29.5 -80.5q0 -54 -29.5 -80.5
t-70.5 -26.5q-45 0 -72.5 26.5t-27.5 80.5q0 55 27.5 80.5t72.5 25.5z" />
    <glyph glyph-name="Alphatonos" unicode="&#x386;" horiz-adv-x="1335" 
d="M1118 0l-162 435h-573l-160 -435h-213l558 1468h210l555 -1468h-215zM899 613l-154 431q-7 22 -21.5 66t-29 91t-23.5 78q-10 -41 -23 -86.5t-25.5 -85t-20.5 -63.5l-156 -431h453zM25 1135v28q14 38 28 85t26 98.5t22 101t15 90.5h205v-22q-13 -49 -41.5 -115.5
t-63 -136.5t-70.5 -129h-121z" />
    <glyph glyph-name="anoteleia" unicode="&#x387;" horiz-adv-x="550" 
d="M142 987q0 76 38.5 107.5t93.5 31.5q56 0 95 -31.5t39 -107.5q0 -74 -39 -108t-95 -34q-55 0 -93.5 34t-38.5 108z" />
    <glyph glyph-name="Epsilontonos" unicode="&#x388;" horiz-adv-x="1321" 
d="M1198 0h-821v1462h821v-176h-616v-435h579v-174h-579v-500h616v-177zM-2 1135v28q14 38 28 85t26 98.5t22 101t15 90.5h205v-22q-13 -49 -41.5 -115.5t-63 -136.5t-70.5 -129h-121z" />
    <glyph glyph-name="Etatonos" unicode="&#x389;" horiz-adv-x="1705" 
d="M1508 0h-205v675h-721v-675h-205v1462h205v-610h721v610h205v-1462zM-2 1135v28q14 38 28 85t26 98.5t22 101t15 90.5h205v-22q-13 -49 -41.5 -115.5t-63 -136.5t-70.5 -129h-121z" />
    <glyph glyph-name="Iotatonos" unicode="&#x38a;" horiz-adv-x="786" 
d="M382 0v1462h205v-1462h-205zM-2 1135v28q14 38 28 85t26 98.5t22 101t15 90.5h205v-22q-13 -49 -41.5 -115.5t-63 -136.5t-70.5 -129h-121z" />
    <glyph glyph-name="Omicrontonos" unicode="&#x38c;" horiz-adv-x="1698" 
d="M1574 733q0 -169 -43 -307.5t-127.5 -238t-211 -153.5t-295.5 -54q-172 0 -299.5 54t-211.5 154t-125.5 239t-41.5 308q0 225 74 394t225.5 262.5t381.5 93.5q222 0 372 -93t226 -261.5t76 -397.5zM434 733q0 -178 49.5 -307.5t152 -200t261.5 -70.5q161 0 263 70.5
t150 200t48 307.5q0 270 -110 422.5t-348 152.5q-160 0 -263 -69.5t-153 -198t-50 -307.5zM-2 1135v28q14 38 28 85t26 98.5t22 101t15 90.5h205v-22q-13 -49 -41.5 -115.5t-63 -136.5t-70.5 -129h-121z" />
    <glyph glyph-name="Upsilontonos" unicode="&#x38e;" horiz-adv-x="1507" 
d="M918 762l368 700h220l-486 -894v-568h-205v559l-487 903h224zM-2 1135v28q14 38 28 85t26 98.5t22 101t15 90.5h205v-22q-13 -49 -41.5 -115.5t-63 -136.5t-70.5 -129h-121z" />
    <glyph glyph-name="Omegatonos" unicode="&#x38f;" horiz-adv-x="1694" 
d="M894 1308q-153 0 -255.5 -59t-154 -169t-51.5 -265q0 -136 33 -251.5t106 -212.5t193 -179v-172h-599v178h374q-91 65 -164 160.5t-115 220.5t-42 276q0 198 80.5 344t231.5 226t363 80q214 0 365.5 -79.5t231.5 -225t80 -344.5q0 -152 -42 -277t-114.5 -220.5
t-165.5 -160.5h374v-178h-600v172q122 81 195.5 178.5t106.5 214t33 250.5q0 156 -52 266t-155.5 168.5t-256.5 58.5zM-11 1137v28q14 38 28 85t26 98.5t22 101t15 90.5h205v-22q-13 -49 -41.5 -115.5t-63 -136.5t-70.5 -129h-121z" />
    <glyph glyph-name="iotadieresistonos" unicode="&#x390;" horiz-adv-x="730" 
d="M365 1102v-774q0 -93 39 -139t118 -46q45 0 92 8t78 18v-154q-32 -15 -89 -25t-115 -10q-94 0 -166.5 30.5t-114 105.5t-41.5 209v777h199zM491 1716v-20q-20 -43 -50.5 -96t-67 -108t-74.5 -104h-95v23q15 42 31.5 95t31 108.5t22.5 101.5h202zM52 1503q43 0 71 -25.5
t28 -80.5q0 -54 -28 -80.5t-71 -26.5t-71 26.5t-28 80.5q0 55 28 80.5t71 25.5zM523 1503q41 0 70.5 -25.5t29.5 -80.5q0 -54 -29.5 -80.5t-70.5 -26.5q-45 0 -72.5 26.5t-27.5 80.5q0 55 27.5 80.5t72.5 25.5z" />
    <glyph glyph-name="Alpha" unicode="&#x391;" horiz-adv-x="1325" 
d="M1108 0l-162 435h-573l-160 -435h-213l558 1468h210l555 -1468h-215zM889 613l-154 431q-7 22 -21.5 66t-29 91t-23.5 78q-10 -41 -23 -86.5t-25.5 -85t-20.5 -63.5l-156 -431h453z" />
    <glyph glyph-name="Beta" unicode="&#x392;" horiz-adv-x="1336" 
d="M196 1462h424q279 0 420 -82t141 -281q0 -85 -31 -152t-90 -111t-145 -60v-10q90 -15 160 -54t110.5 -110.5t40.5 -183.5q0 -134 -63 -227.5t-178.5 -142t-274.5 -48.5h-514v1462zM401 847h255q177 0 245 58t68 169q0 115 -81 165.5t-257 50.5h-230v-443zM401 678v-505
h279q181 0 255.5 71t74.5 191q0 76 -33.5 130.5t-108.5 83.5t-202 29h-265z" />
    <glyph glyph-name="Gamma" unicode="&#x393;" horiz-adv-x="1086" 
d="M1043 1462v-178h-642v-1284h-205v1462h847z" />
    <glyph glyph-name="uni0394" unicode="&#x394;" horiz-adv-x="1227" 
d="M720 1464l464 -1343v-121h-1142v123l464 1341h214zM965 177l-269 792q-16 49 -32.5 102t-30 102.5t-22.5 87.5q-9 -38 -22 -87.5t-28.5 -101t-30.5 -97.5l-272 -798h707z" />
    <glyph glyph-name="Epsilon" unicode="&#x395;" horiz-adv-x="1140" 
d="M1017 0h-821v1462h821v-176h-616v-435h579v-174h-579v-500h616v-177z" />
    <glyph glyph-name="Zeta" unicode="&#x396;" horiz-adv-x="1176" 
d="M1104 0h-1033v146l765 1138h-740v178h988v-146l-766 -1138h786v-178z" />
    <glyph glyph-name="Eta" unicode="&#x397;" horiz-adv-x="1524" 
d="M1327 0h-205v675h-721v-675h-205v1462h205v-610h721v610h205v-1462z" />
    <glyph glyph-name="Theta" unicode="&#x398;" horiz-adv-x="1602" 
d="M1101 830v-174h-601v174h601zM1479 733q0 -169 -43 -307.5t-127.5 -238t-211 -153.5t-295.5 -54q-172 0 -299.5 54t-211.5 154t-125.5 239t-41.5 308q0 225 74 394t225.5 262.5t381.5 93.5q222 0 372 -93t226 -261.5t76 -397.5zM339 733q0 -178 49.5 -307.5t152 -200
t261.5 -70.5q161 0 263 70.5t150 200t48 307.5q0 270 -110 422.5t-348 152.5q-160 0 -263 -69.5t-153 -198t-50 -307.5z" />
    <glyph glyph-name="Iota" unicode="&#x399;" horiz-adv-x="599" 
d="M196 0v1462h205v-1462h-205z" />
    <glyph glyph-name="Kappa" unicode="&#x39a;" horiz-adv-x="1281" 
d="M1281 0h-239l-491 687l-150 -128v-559h-205v1462h205v-714q51 60 103.5 119t104.5 119l419 476h235l-564 -637z" />
    <glyph glyph-name="Lambda" unicode="&#x39b;" horiz-adv-x="1259" 
d="M737 1462l521 -1462h-213l-321 932q-18 53 -36 111t-34 114t-28 101q-9 -46 -24 -102t-33 -113.5t-36 -109.5l-320 -933h-213l519 1462h218z" />
    <glyph glyph-name="Mu" unicode="&#x39c;" horiz-adv-x="1864" 
d="M833 0l-456 1257h-8q3 -41 6.5 -105.5t6 -140t2.5 -148.5v-863h-188v1462h295l433 -1191h7l444 1191h293v-1462h-198v875q0 66 2 137.5t5.5 136t6.5 106.5h-9l-467 -1255h-175z" />
    <glyph glyph-name="Nu" unicode="&#x39d;" horiz-adv-x="1573" 
d="M1378 0h-246l-757 1198h-8q3 -54 7 -118.5t6.5 -135t3.5 -142.5v-802h-188v1462h244l754 -1192h7q-2 44 -5 109t-5.5 137.5t-2.5 137.5v808h190v-1462z" />
    <glyph glyph-name="Xi" unicode="&#x39e;" horiz-adv-x="1138" 
d="M71 0v177h996v-177h-996zM194 676v175h750v-175h-750zM112 1286v176h914v-176h-914z" />
    <glyph glyph-name="Omicron" unicode="&#x39f;" horiz-adv-x="1602" 
d="M1479 733q0 -169 -43 -307.5t-127.5 -238t-211 -153.5t-295.5 -54q-172 0 -299.5 54t-211.5 154t-125.5 239t-41.5 308q0 225 74 394t225.5 262.5t381.5 93.5q222 0 372 -93t226 -261.5t76 -397.5zM339 733q0 -178 49.5 -307.5t152 -200t261.5 -70.5q161 0 263 70.5
t150 200t48 307.5q0 270 -110 422.5t-348 152.5q-160 0 -263 -69.5t-153 -198t-50 -307.5z" />
    <glyph glyph-name="Pi" unicode="&#x3a0;" horiz-adv-x="1500" 
d="M196 0v1462h1106v-1462h-203v1285h-698v-1285h-205z" />
    <glyph glyph-name="Rho" unicode="&#x3a1;" horiz-adv-x="1246" 
d="M599 1462q283 0 413.5 -113t130.5 -321q0 -94 -30 -178.5t-97.5 -149t-177.5 -102t-270 -37.5h-167v-561h-205v1462h403zM583 1290h-182v-556h145q127 0 213 28.5t130 91.5t44 166q0 136 -85 203t-265 67z" />
    <glyph glyph-name="Sigma" unicode="&#x3a3;" horiz-adv-x="1174" 
d="M74 0v166l485 599l-473 532v165h977v-177h-514h-77t-86.5 1t-69.5 3l467 -522l-489 -595q74 2 148 3.5t151 1.5h529v-177h-1048z" />
    <glyph glyph-name="Tau" unicode="&#x3a4;" horiz-adv-x="1143" 
d="M674 0h-206v1285h-444v177h1093v-177h-443v-1285z" />
    <glyph glyph-name="Upsilon" unicode="&#x3a5;" horiz-adv-x="1178" 
d="M590 762l368 700h220l-486 -894v-568h-205v559l-487 903h224z" />
    <glyph glyph-name="Phi" unicode="&#x3a6;" horiz-adv-x="1664" 
d="M929 1483v-180q234 -4 372.5 -77.5t199 -194.5t60.5 -271q0 -102 -32 -199.5t-104.5 -176.5t-194 -127.5t-301.5 -51.5v-225h-195v225q-183 3 -305.5 53t-194 129.5t-102 176t-30.5 194.5q0 110 33.5 207t107.5 172t195 119t296 47v180h195zM734 1135q-158 -5 -252.5 -52
t-136 -129.5t-41.5 -193.5q0 -117 46 -203t141 -134t243 -53v765zM929 1135v-765q152 5 246.5 54t139 135.5t44.5 202.5q0 111 -41.5 193t-135.5 128.5t-253 51.5z" />
    <glyph glyph-name="Chi" unicode="&#x3a7;" horiz-adv-x="1229" 
d="M1224 0h-234l-381 621l-386 -621h-218l486 760l-453 702h227l353 -569l352 569h219l-454 -704z" />
    <glyph glyph-name="Psi" unicode="&#x3a8;" horiz-adv-x="1673" 
d="M1560 1462v-480q0 -117 -31 -215.5t-103.5 -170.5t-194 -112.5t-301.5 -40.5v-443h-194v443q-181 0 -302 41t-192 114t-101 170.5t-30 210.5v483h200v-479q0 -129 45 -210t139 -119t241 -38v846h194v-846q147 0 241.5 38.5t140 118.5t45.5 207v482h203z" />
    <glyph glyph-name="uni03A9" unicode="&#x3a9;" horiz-adv-x="1602" 
d="M801 1308q-153 0 -255.5 -59t-154 -169t-51.5 -265q0 -136 33 -251.5t106 -212.5t193 -179v-172h-599v178h374q-91 65 -164 160.5t-115 220.5t-42 276q0 198 80.5 344t231.5 226t363 80q214 0 365.5 -79.5t231.5 -225t80 -344.5q0 -152 -42 -277t-114.5 -220.5
t-165.5 -160.5h374v-178h-600v172q122 81 195.5 178.5t106.5 214t33 250.5q0 156 -52 266t-155.5 168.5t-256.5 58.5z" />
    <glyph glyph-name="Iotadieresis" unicode="&#x3aa;" horiz-adv-x="599" 
d="M196 0v1462h205v-1462h-205zM3 1758q0 55 30 80.5t73 25.5t73.5 -25.5t30.5 -80.5q0 -54 -30.5 -80.5t-73.5 -26.5t-73 26.5t-30 80.5zM392 1758q0 55 29.5 80.5t72.5 25.5t74 -25.5t31 -80.5q0 -54 -31 -80.5t-74 -26.5t-72.5 26.5t-29.5 80.5z" />
    <glyph glyph-name="Upsilondieresis" unicode="&#x3ab;" horiz-adv-x="1178" 
d="M590 762l368 700h220l-486 -894v-568h-205v559l-487 903h224zM291 1758q0 55 30 80.5t73 25.5t73.5 -25.5t30.5 -80.5q0 -54 -30.5 -80.5t-73.5 -26.5t-73 26.5t-30 80.5zM680 1758q0 55 29.5 80.5t72.5 25.5t74 -25.5t31 -80.5q0 -54 -31 -80.5t-74 -26.5t-72.5 26.5
t-29.5 80.5z" />
    <glyph glyph-name="alphatonos" unicode="&#x3ac;" horiz-adv-x="1270" 
d="M599 144q107 0 171.5 42.5t94 129.5t30.5 221v15q0 198 -64.5 300.5t-232.5 102.5q-144 0 -213.5 -105t-69.5 -305q0 -199 69 -300t215 -101zM556 -20q-202 0 -324.5 143t-122.5 424q0 279 123 426.5t342 147.5q121 0 201.5 -43.5t131.5 -128.5h13q8 37 24.5 79t38.5 74
h162q-15 -46 -27.5 -117t-20.5 -153t-8 -161v-401q0 -70 25 -97t61 -27q16 0 34.5 3.5t27.5 7.5v-152q-10 -6 -29.5 -11.5t-42.5 -9.5t-45 -4q-83 0 -134.5 37.5t-74.5 136.5h-15q-30 -48 -74.5 -87.5t-109.5 -63t-156 -23.5zM552 1241v28q14 38 28 85t26 98.5t22 101
t15 90.5h205v-22q-13 -49 -41.5 -115.5t-63 -136.5t-70.5 -129h-121z" />
    <glyph glyph-name="epsilontonos" unicode="&#x3ad;" horiz-adv-x="1018" 
d="M749 652v-155h-152q-106 0 -175 -20t-102.5 -61t-33.5 -101q0 -61 35.5 -99.5t100.5 -56.5t153 -18q115 0 207 26t161 58v-171q-66 -33 -159.5 -53.5t-220.5 -20.5q-246 0 -361.5 90.5t-115.5 229.5q0 122 72.5 183t178.5 88v10q-98 27 -152.5 89.5t-54.5 160.5
q0 97 57 161.5t155 97t222 32.5q116 0 208 -20.5t174 -57.5l-70 -155q-68 31 -141.5 52t-169.5 21q-123 0 -185 -38t-62 -111q0 -86 81 -123.5t226 -37.5h124zM482 1241v28q14 38 28 85t26 98.5t22 101t15 90.5h205v-22q-13 -49 -41.5 -115.5t-63 -136.5t-70.5 -129h-121z
" />
    <glyph glyph-name="etatonos" unicode="&#x3ae;" horiz-adv-x="1279" 
d="M719 1122q128 0 216 -42t134 -131t46 -231v-1210h-199v1183q0 132 -57.5 198.5t-178.5 66.5q-113 0 -180.5 -45t-97.5 -133t-30 -216v-562h-201v1102h159l29 -155h11q35 58 89 97t120.5 58.5t139.5 19.5zM585 1241v28q14 38 28 85t26 98.5t22 101t15 90.5h205v-22
q-13 -49 -41.5 -115.5t-63 -136.5t-70.5 -129h-121z" />
    <glyph glyph-name="iotatonos" unicode="&#x3af;" horiz-adv-x="730" 
d="M365 1102v-774q0 -93 39 -139t118 -46q45 0 92 8t78 18v-154q-32 -15 -89 -25t-115 -10q-94 0 -166.5 30.5t-114 105.5t-41.5 209v777h199zM191 1241v28q14 38 28 85t26 98.5t22 101t15 90.5h205v-22q-13 -49 -41.5 -115.5t-63 -136.5t-70.5 -129h-121z" />
    <glyph glyph-name="upsilondieresistonos" unicode="&#x3b0;" horiz-adv-x="1267" 
d="M632 -19q-182 0 -285.5 67.5t-146 185t-42.5 265.5v603h201v-601q0 -172 68.5 -265t217.5 -93q155 0 231 112t76 352q0 139 -17 254t-49 241h202q22 -83 36.5 -160.5t22 -160t7.5 -181.5q0 -317 -131.5 -468t-390.5 -151zM845 1716v-20q-20 -43 -50.5 -96t-67 -108
t-74.5 -104h-95v23q15 42 31.5 95t31 108.5t22.5 101.5h202zM406 1503q43 0 71 -25.5t28 -80.5q0 -54 -28 -80.5t-71 -26.5t-71 26.5t-28 80.5q0 55 28 80.5t71 25.5zM877 1503q41 0 70.5 -25.5t29.5 -80.5q0 -54 -29.5 -80.5t-70.5 -26.5q-45 0 -72.5 26.5t-27.5 80.5
q0 55 27.5 80.5t72.5 25.5z" />
    <glyph glyph-name="alpha" unicode="&#x3b1;" horiz-adv-x="1270" 
d="M599 144q107 0 171.5 42.5t94 129.5t30.5 221v15q0 198 -64.5 300.5t-232.5 102.5q-144 0 -213.5 -105t-69.5 -305q0 -199 69 -300t215 -101zM556 -20q-202 0 -324.5 143t-122.5 424q0 279 123 426.5t342 147.5q121 0 201.5 -43.5t131.5 -128.5h13q8 37 24.5 79t38.5 74
h162q-15 -46 -27.5 -117t-20.5 -153t-8 -161v-401q0 -70 25 -97t61 -27q16 0 34.5 3.5t27.5 7.5v-152q-10 -6 -29.5 -11.5t-42.5 -9.5t-45 -4q-83 0 -134.5 37.5t-74.5 136.5h-15q-30 -48 -74.5 -87.5t-109.5 -63t-156 -23.5z" />
    <glyph glyph-name="beta" unicode="&#x3b2;" horiz-adv-x="1301" 
d="M670 1567q139 0 246 -43.5t168 -130t61 -216.5q0 -147 -78.5 -234.5t-225.5 -111.5v-8q180 -21 276 -119t96 -283q0 -140 -60 -238.5t-170.5 -150t-265.5 -51.5q-113 0 -195 19t-149 53v-545h-202v1589q0 163 64.5 267t177.5 153.5t257 49.5zM665 1403q-80 0 -146.5 -29
t-106 -98.5t-39.5 -192.5v-855q67 -38 144 -61t170 -23q166 0 244 76.5t78 215.5q0 102 -42 167t-117.5 96t-177.5 31h-100v166h81q148 0 217.5 72.5t69.5 193.5q0 120 -74.5 180.5t-200.5 60.5z" />
    <glyph glyph-name="gamma" unicode="&#x3b3;" horiz-adv-x="1076" 
d="M1067 1102l-406 -1073q-32 -83 -54.5 -177.5t-34.5 -183.5t-12 -160h-215q0 59 13 146.5t36.5 182t53.5 177.5l-441 1088h209l223 -573q20 -52 42 -117t39.5 -124.5t23.5 -95.5h8q6 32 21.5 90.5t35.5 123t39 113.5l210 583h209z" />
    <glyph glyph-name="delta" unicode="&#x3b4;" horiz-adv-x="1239" 
d="M664 1560q137 0 237.5 -32.5t189.5 -75.5l-84 -152q-81 44 -166.5 72.5t-184.5 28.5q-93 0 -136.5 -40.5t-43.5 -96.5q0 -48 28 -87t89 -80.5t159 -94.5q123 -65 207.5 -139.5t128.5 -165.5t44 -209q0 -166 -64 -279.5t-180 -171t-272 -57.5q-149 0 -263.5 53.5t-180 156
t-65.5 247.5q0 133 54.5 230.5t150 163.5t217.5 101q-75 44 -132 93t-88.5 109t-31.5 136q0 142 109 216t278 74zM673 846q-81 -21 -164 -66.5t-138.5 -127.5t-55.5 -212q0 -87 36 -153.5t103.5 -104t161.5 -37.5q99 0 168 39t105 114.5t36 183.5q0 133 -67.5 218
t-184.5 146z" />
    <glyph glyph-name="epsilon" unicode="&#x3b5;" horiz-adv-x="1018" 
d="M749 652v-155h-152q-106 0 -175 -20t-102.5 -61t-33.5 -101q0 -61 35.5 -99.5t100.5 -56.5t153 -18q115 0 207 26t161 58v-171q-66 -33 -159.5 -53.5t-220.5 -20.5q-246 0 -361.5 90.5t-115.5 229.5q0 122 72.5 183t178.5 88v10q-98 27 -152.5 89.5t-54.5 160.5
q0 97 57 161.5t155 97t222 32.5q116 0 208 -20.5t174 -57.5l-70 -155q-68 31 -141.5 52t-169.5 21q-123 0 -185 -38t-62 -111q0 -86 81 -123.5t226 -37.5h124z" />
    <glyph glyph-name="zeta" unicode="&#x3b6;" horiz-adv-x="994" 
d="M949 -77q0 -88 -40 -169t-90 -148h-201q35 46 65 95.5t48.5 96.5t18.5 82q0 29 -17 52t-66.5 42t-150.5 37q-132 24 -223 78t-137.5 146t-46.5 226q0 146 47 271t131 237.5t193.5 219.5t234.5 217q-16 -2 -60.5 -4t-102.5 -3.5t-114 -1.5h-268v159h779v-139
q-209 -175 -334.5 -314t-190 -251t-86.5 -204.5t-22 -174.5q0 -112 39.5 -171.5t114 -88t179.5 -50.5q109 -21 174.5 -54t95.5 -78.5t30 -107.5z" />
    <glyph glyph-name="eta" unicode="&#x3b7;" horiz-adv-x="1279" 
d="M719 1122q128 0 216 -42t134 -131t46 -231v-1210h-199v1183q0 132 -57.5 198.5t-178.5 66.5q-113 0 -180.5 -45t-97.5 -133t-30 -216v-562h-201v1102h159l29 -155h11q35 58 89 97t120.5 58.5t139.5 19.5z" />
    <glyph glyph-name="theta" unicode="&#x3b8;" horiz-adv-x="1224" 
d="M1116 776q0 -252 -51 -429.5t-162.5 -272t-293.5 -94.5q-256 0 -378.5 209.5t-122.5 585.5q0 251 51 428.5t161.5 271.5t288.5 94q257 0 382 -207t125 -586zM609 137q152 0 224.5 143.5t78.5 430.5h-600q4 -284 73.5 -429t223.5 -145zM610 1411q-149 0 -218.5 -135.5
t-79.5 -404.5h598q-9 269 -80 404.5t-220 135.5z" />
    <glyph glyph-name="iota" unicode="&#x3b9;" horiz-adv-x="730" 
d="M365 1102v-774q0 -93 39 -139t118 -46q45 0 92 8t78 18v-154q-32 -15 -89 -25t-115 -10q-94 0 -166.5 30.5t-114 105.5t-41.5 209v777h199z" />
    <glyph glyph-name="kappa" unicode="&#x3ba;" horiz-adv-x="1125" 
d="M1080 1102l-421 -491l454 -611h-236l-354 485l-143 -115v-370h-209v1102h209v-288q-1 -77 -3.5 -152t-7.5 -125h4q24 31 49.5 62t48.5 61l377 442h232z" />
    <glyph glyph-name="lambda" unicode="&#x3bb;" horiz-adv-x="1137" 
d="M-7 0l473 1074l-51 144q-37 95 -78.5 139t-126.5 44q-34 0 -61.5 -4t-48.5 -9v164q18 5 41.5 8.5t49 6t49.5 2.5q108 0 175.5 -36.5t112.5 -111.5t86 -189l341 -953q18 -50 36 -78.5t38 -41t45 -12.5q15 0 32.5 3.5t29.5 6.5v-152q-15 -7 -36 -12.5t-44.5 -9t-46.5 -3.5
q-57 0 -97 19t-68.5 59t-50.5 100l-145 411q-12 35 -25.5 74.5t-26.5 78.5t-23 74.5t-16 61.5h-7q-17 -63 -43.5 -136.5t-55.5 -143.5l-250 -578h-208z" />
    <glyph glyph-name="uni03BC" unicode="&#x3bc;" horiz-adv-x="1288" 
d="M1116 1102v-1102h-159l-30 152h-10q-33 -55 -77 -93.5t-102.5 -58.5t-133.5 -20q-80 0 -138 26t-96 72h-7q3 -24 5 -61.5t3 -83t1 -94.5v-331h-201v1594h201v-695q0 -129 59 -196t179 -67q116 0 182.5 45.5t95 133.5t28.5 214v565h200z" />
    <glyph glyph-name="nu" unicode="&#x3bd;" horiz-adv-x="1136" 
d="M2 1102h207l230 -629q15 -40 34.5 -97t37 -111.5t26.5 -90.5h8q115 121 182.5 259.5t97 303.5t29.5 365h200q0 -218 -39.5 -405.5t-135 -358t-264.5 -338.5h-202z" />
    <glyph glyph-name="xi" unicode="&#x3be;" horiz-adv-x="983" 
d="M107 427q0 100 39.5 176.5t105 128.5t145.5 78v11q-69 18 -119 53.5t-76.5 90t-26.5 131.5q0 91 39 152t107.5 99t155.5 61q-32 -3 -76 -5.5t-90.5 -4t-85.5 -1.5h-56v159h728v-149h-61q-86 0 -169 -18.5t-149.5 -56t-106.5 -95t-40 -134.5q0 -104 73.5 -158t251.5 -54
h166v-148h-170q-123 0 -207 -38t-126.5 -106t-42.5 -158q0 -101 41 -153t117 -77.5t180 -47.5q109 -22 173.5 -56t92.5 -79.5t28 -104.5q0 -87 -39.5 -168.5t-85.5 -148.5h-196q35 47 64 96.5t46 96t17 83.5q0 27 -16 49.5t-66.5 42t-152.5 38.5q-134 23 -225.5 75t-139 136
t-47.5 204z" />
    <glyph glyph-name="omicron" unicode="&#x3bf;" horiz-adv-x="1241" 
d="M1134 553q0 -136 -35.5 -242.5t-103 -180t-162.5 -112t-215 -38.5q-112 0 -205.5 38.5t-161.5 112t-105 180t-37 242.5q0 181 62 308.5t177.5 194t275.5 66.5q152 0 267 -67t179 -194t64 -308zM315 553q0 -127 32.5 -218.5t100 -140.5t174.5 -49q105 0 173 49t100 140.5
t32 218.5q0 126 -32 216t-99.5 138t-175.5 48q-158 0 -231.5 -105.5t-73.5 -296.5z" />
    <glyph glyph-name="pi" unicode="&#x3c0;" horiz-adv-x="1378" 
d="M1188 142q30 0 55.5 7t44.5 17v-154q-21 -12 -62 -22t-92 -10q-116 0 -179.5 68t-63.5 206v685h-441v-939h-199v939h-226v89l157 74h1130v-163h-221v-672q0 -68 27 -96.5t70 -28.5z" />
    <glyph glyph-name="rho" unicode="&#x3c1;" horiz-adv-x="1240" 
d="M1132 552q0 -185 -57.5 -313t-164.5 -193.5t-255 -65.5q-85 0 -162.5 24t-135.5 66h-12q5 -40 8 -112t3 -155v-295h-203v1056q0 185 59.5 308.5t171 186.5t265.5 63q143 0 252 -66t170 -193t61 -311zM642 955q-145 0 -215.5 -96.5t-70.5 -293.5v-321q56 -49 129.5 -74
t152.5 -25q152 0 220 101t68 306t-66.5 304t-217.5 99z" />
    <glyph glyph-name="uni03C2" unicode="&#x3c2;" horiz-adv-x="996" 
d="M642 1122q84 0 165 -17.5t144 -45.5l-61 -162q-60 22 -124 38.5t-131 16.5q-169 0 -244.5 -111t-75.5 -323q0 -115 31 -181t105 -102.5t202 -64.5q109 -23 174 -57t93 -80t28 -106q0 -89 -40 -173t-85 -148h-196q35 47 64 97t47 97.5t18 85.5q0 28 -17 51t-67 43t-150 39
q-91 18 -167 53.5t-131 94t-85 144t-30 203.5q0 215 66.5 348.5t186.5 196.5t280 63z" />
    <glyph glyph-name="sigma" unicode="&#x3c3;" horiz-adv-x="1274" 
d="M1136 498q0 -148 -59 -265t-174 -185t-285 -68q-154 0 -269 63.5t-177.5 185.5t-62.5 299q0 204 72.5 330.5t208 185t322.5 58.5h514v-160h-269q79 -79 129 -188.5t50 -255.5zM316 528q0 -113 31.5 -199t99.5 -135t176 -49q161 0 234 101t73 261q0 88 -18.5 165.5
t-54.5 144.5t-88 125h-62q-199 0 -295 -94.5t-96 -319.5z" />
    <glyph glyph-name="tau" unicode="&#x3c4;" horiz-adv-x="1002" 
d="M940 1102v-163h-420v-601q0 -107 49.5 -152t132.5 -45q47 0 94.5 7t82.5 18v-151q-33 -14 -90.5 -25t-121.5 -11q-97 0 -176.5 29.5t-126.5 105t-47 211.5v614h-292v89l157 74h758z" />
    <glyph glyph-name="upsilon" unicode="&#x3c5;" horiz-adv-x="1267" 
d="M632 -19q-182 0 -285.5 67.5t-146 185t-42.5 265.5v603h201v-601q0 -172 68.5 -265t217.5 -93q155 0 231 112t76 352q0 139 -17 254t-49 241h202q22 -83 36.5 -160.5t22 -160t7.5 -181.5q0 -317 -131.5 -468t-390.5 -151z" />
    <glyph glyph-name="phi" unicode="&#x3c6;" horiz-adv-x="1507" 
d="M323 1116l151 -103q-77 -102 -123 -211.5t-46 -252.5q0 -138 45 -224t122 -128.5t172 -53.5v597q0 187 91 284t246 97q130 0 223.5 -67t143.5 -188.5t50 -285.5q0 -194 -77 -323t-205 -196.5t-280 -77.5v-475h-192v475q-156 11 -277 72t-189.5 183.5t-68.5 316.5
q0 169 60 308t154 253zM983 962q-63 0 -105 -49.5t-42 -170.5v-599q106 9 187.5 61t128.5 146t47 228q0 120 -26 205.5t-74.5 132t-115.5 46.5z" />
    <glyph glyph-name="chi" unicode="&#x3c7;" horiz-adv-x="1139" 
d="M192 1111q72 0 117.5 -28t78 -83t62.5 -138l131 -340l309 580h209l-432 -767l195 -489q23 -59 47 -96.5t55 -55.5t76 -18q25 0 48 2.5t45 6.5v-156q-27 -9 -60 -15t-80 -6q-87 0 -145 32.5t-96.5 94t-70.5 149.5l-142 383l-348 -659h-215l472 850l-166 429
q-29 79 -63.5 118.5t-84.5 39.5q-20 0 -40.5 -3t-39.5 -10v159q27 8 60.5 14t77.5 6z" />
    <glyph glyph-name="psi" unicode="&#x3c8;" horiz-adv-x="1587" 
d="M895 1554v-1407q119 10 203.5 57.5t129.5 139.5t45 234q0 140 -18.5 262t-51.5 262h195q34 -138 50.5 -261t16.5 -259q0 -208 -75 -337t-204 -191t-291 -71v-475h-192v475q-161 6 -284 64t-192 181.5t-69 324.5v549h196v-554q0 -145 44 -230.5t122.5 -125.5t182.5 -47
v1409h192z" />
    <glyph glyph-name="omega" unicode="&#x3c9;" horiz-adv-x="1631" 
d="M1397 1102q41 -95 67.5 -185t39.5 -183t13 -201q0 -162 -45 -287t-134 -195.5t-223 -70.5q-118 0 -189.5 50t-106.5 143h-9q-33 -93 -105.5 -143t-188.5 -50q-131 0 -221 69.5t-135.5 194t-45.5 289.5q0 108 13 201t39.5 182.5t67.5 185.5h200q-64 -142 -94.5 -274.5
t-30.5 -293.5q0 -189 58 -290t163 -101q67 0 109 33.5t62 93.5t20 139v310h189v-310q0 -85 21 -144.5t63 -90.5t105 -31q72 0 121.5 45.5t75.5 133t26 211.5q0 160 -30.5 293.5t-95.5 275.5h201z" />
    <glyph glyph-name="iotadieresis" unicode="&#x3ca;" horiz-adv-x="730" 
d="M365 1102v-774q0 -93 39 -139t118 -46q45 0 92 8t78 18v-154q-32 -15 -89 -25t-115 -10q-94 0 -166.5 30.5t-114 105.5t-41.5 209v777h199zM-21 1397q0 55 30 80.5t73 25.5t73.5 -25.5t30.5 -80.5q0 -54 -30.5 -80.5t-73.5 -26.5t-73 26.5t-30 80.5zM368 1397
q0 55 29.5 80.5t72.5 25.5t74 -25.5t31 -80.5q0 -54 -31 -80.5t-74 -26.5t-72.5 26.5t-29.5 80.5z" />
    <glyph glyph-name="upsilondieresis" unicode="&#x3cb;" horiz-adv-x="1267" 
d="M632 -19q-182 0 -285.5 67.5t-146 185t-42.5 265.5v603h201v-601q0 -172 68.5 -265t217.5 -93q155 0 231 112t76 352q0 139 -17 254t-49 241h202q22 -83 36.5 -160.5t22 -160t7.5 -181.5q0 -317 -131.5 -468t-390.5 -151zM333 1397q0 55 30 80.5t73 25.5t73.5 -25.5
t30.5 -80.5q0 -54 -30.5 -80.5t-73.5 -26.5t-73 26.5t-30 80.5zM722 1397q0 55 29.5 80.5t72.5 25.5t74 -25.5t31 -80.5q0 -54 -31 -80.5t-74 -26.5t-72.5 26.5t-29.5 80.5z" />
    <glyph glyph-name="omicrontonos" unicode="&#x3cc;" horiz-adv-x="1241" 
d="M1134 553q0 -136 -35.5 -242.5t-103 -180t-162.5 -112t-215 -38.5q-112 0 -205.5 38.5t-161.5 112t-105 180t-37 242.5q0 181 62 308.5t177.5 194t275.5 66.5q152 0 267 -67t179 -194t64 -308zM315 553q0 -127 32.5 -218.5t100 -140.5t174.5 -49q105 0 173 49t100 140.5
t32 218.5q0 126 -32 216t-99.5 138t-175.5 48q-158 0 -231.5 -105.5t-73.5 -296.5zM535 1241v28q14 38 28 85t26 98.5t22 101t15 90.5h205v-22q-13 -49 -41.5 -115.5t-63 -136.5t-70.5 -129h-121z" />
    <glyph glyph-name="upsilontonos" unicode="&#x3cd;" horiz-adv-x="1267" 
d="M632 -19q-182 0 -285.5 67.5t-146 185t-42.5 265.5v603h201v-601q0 -172 68.5 -265t217.5 -93q155 0 231 112t76 352q0 139 -17 254t-49 241h202q22 -83 36.5 -160.5t22 -160t7.5 -181.5q0 -317 -131.5 -468t-390.5 -151zM545 1241v28q14 38 28 85t26 98.5t22 101
t15 90.5h205v-22q-13 -49 -41.5 -115.5t-63 -136.5t-70.5 -129h-121z" />
    <glyph glyph-name="omegatonos" unicode="&#x3ce;" horiz-adv-x="1631" 
d="M1397 1102q41 -95 67.5 -185t39.5 -183t13 -201q0 -162 -45 -287t-134 -195.5t-223 -70.5q-118 0 -189.5 50t-106.5 143h-9q-33 -93 -105.5 -143t-188.5 -50q-131 0 -221 69.5t-135.5 194t-45.5 289.5q0 108 13 201t39.5 182.5t67.5 185.5h200q-64 -142 -94.5 -274.5
t-30.5 -293.5q0 -189 58 -290t163 -101q67 0 109 33.5t62 93.5t20 139v310h189v-310q0 -85 21 -144.5t63 -90.5t105 -31q72 0 121.5 45.5t75.5 133t26 211.5q0 160 -30.5 293.5t-95.5 275.5h201zM729 1241v28q14 38 28 85t26 98.5t22 101t15 90.5h205v-22
q-13 -49 -41.5 -115.5t-63 -136.5t-70.5 -129h-121z" />
    <glyph glyph-name="uni03D1" unicode="&#x3d1;" horiz-adv-x="1321" 
d="M616 1569q116 0 205.5 -41t153.5 -117.5t104.5 -185.5t58.5 -245h144v-162h-131q2 -20 2.5 -48t0.5 -55q0 -155 -32.5 -289t-101 -234t-176.5 -156t-258 -56q-112 0 -186.5 28.5t-119 78.5t-63 113t-18.5 131q0 52 6.5 102.5t12.5 96t6 78.5q0 46 -17.5 64t-49.5 18
q-25 0 -50.5 -9t-41.5 -18l-46 134q41 22 95.5 37.5t116.5 15.5q95 0 138.5 -51t43.5 -133q0 -46 -6 -97t-13 -106t-7 -114q0 -85 49 -146.5t160 -61.5q117 0 196 64t119 194t40 325q0 20 -1 47t-3 46q-253 3 -406.5 62t-223 157.5t-69.5 218.5q0 88 39 159t120.5 113
t208.5 42zM614 1408q-85 0 -127.5 -41t-42.5 -117q0 -75 48.5 -135.5t157 -96.5t287.5 -38q-12 102 -41 182t-71 135t-95.5 83t-115.5 28z" />
    <glyph glyph-name="uni03D2" unicode="&#x3d2;" horiz-adv-x="1192" 
d="M586 752q34 78 70 160t71.5 160.5t67.5 144t58 110.5q29 50 60.5 82.5t72 49t95.5 16.5q32 0 58 -4.5t47 -14.5v-157q-12 3 -28.5 5.5t-32.5 2.5q-30 0 -57.5 -17t-64.5 -79q-24 -40 -62.5 -111.5t-83 -163t-89 -192t-80.5 -197.5v-547h-207v559l-481 903h224z" />
    <glyph glyph-name="uni03D6" unicode="&#x3d6;" horiz-adv-x="1805" 
d="M1744 1102v-162h-251q31 -74 53.5 -152.5t35 -158.5t12.5 -160q0 -158 -45 -267t-134.5 -165.5t-222.5 -56.5q-117 0 -190 50t-107 143h-8q-35 -93 -107.5 -143t-188.5 -50q-195 0 -298 123.5t-103 365.5q0 80 14.5 160.5t40 159t57.5 151.5h-273v87l153 75h1562z
M1300 940h-806q-30 -69 -54.5 -146t-39.5 -156.5t-15 -159.5q0 -183 57.5 -259t164.5 -76q98 0 144 73.5t46 192.5v185h190v-185q0 -85 22 -144.5t64.5 -90.5t105.5 -31q106 0 162.5 77t56.5 257q0 79 -12 158.5t-33.5 156.5t-52.5 148z" />
    <glyph glyph-name="uni0400" unicode="&#x400;" horiz-adv-x="1140" 
d="M1017 0h-821v1462h821v-176h-616v-435h579v-174h-579v-500h616v-177zM560 1930q26 -46 63 -102.5t77.5 -109.5t73.5 -91v-25h-135q-37 29 -82 69t-90 84.5t-82 85t-59 69.5v20h234z" />
    <glyph glyph-name="uni0401" unicode="&#x401;" horiz-adv-x="1140" 
d="M1017 0h-821v1462h821v-176h-616v-435h579v-174h-579v-500h616v-177zM325 1758q0 55 30 80.5t73 25.5t73.5 -25.5t30.5 -80.5q0 -54 -30.5 -80.5t-73.5 -26.5t-73 26.5t-30 80.5zM714 1758q0 55 29.5 80.5t72.5 25.5t74 -25.5t31 -80.5q0 -54 -31 -80.5t-74 -26.5
t-72.5 26.5t-29.5 80.5z" />
    <glyph glyph-name="uni0402" unicode="&#x402;" horiz-adv-x="1539" 
d="M1017 -19q-48 0 -92 7t-74 19v175q35 -12 72 -18.5t81 -6.5q46 0 88.5 17t70.5 64t28 135v133q0 114 -56.5 167.5t-188.5 53.5h-372v-727h-203v1285h-347v177h1002v-177h-452v-381h385q210 0 322.5 -97t112.5 -280v-141q0 -202 -103 -303.5t-274 -101.5z" />
    <glyph glyph-name="uni0403" unicode="&#x403;" horiz-adv-x="1086" 
d="M1043 1462v-178h-642v-1284h-205v1462h847zM948 1930v-20q-22 -29 -59.5 -69.5t-82.5 -85t-90 -84.5t-82 -69h-134v25q32 38 71.5 91t77.5 109.5t63 102.5h236z" />
    <glyph glyph-name="uni0404" unicode="&#x404;" horiz-adv-x="1328" 
d="M835 1306q-104 0 -190.5 -30t-150 -89t-102 -145t-49.5 -200h702v-174h-706q5 -122 38.5 -217t95.5 -160.5t152 -100t208 -34.5q101 0 193.5 17.5t185.5 45.5v-176q-86 -32 -183.5 -47.5t-216.5 -15.5q-237 0 -389.5 94t-225.5 263t-73 395q0 168 46.5 306t138 238
t225.5 154.5t308 54.5q129 0 231.5 -25t192.5 -68l-79 -172q-78 37 -163 61.5t-189 24.5z" />
    <glyph glyph-name="uni0405" unicode="&#x405;" horiz-adv-x="1124" 
d="M1031 393q0 -130 -64.5 -222.5t-181.5 -141.5t-278 -49q-81 0 -154.5 8.5t-136.5 24.5t-114 40v194q83 -34 192 -63.5t225 -29.5q101 0 169.5 27.5t103.5 77.5t35 120t-34 117.5t-107.5 87.5t-192.5 85q-83 30 -151 68.5t-117.5 88.5t-76.5 117.5t-27 155.5
q0 121 59.5 207t166.5 131.5t248 45.5q116 0 216.5 -23t191.5 -63l-65 -170q-85 35 -171 57t-178 22q-85 0 -143.5 -25t-89 -71t-30.5 -109q0 -71 32 -118t101 -85t180 -81q125 -48 212.5 -102t133.5 -130t46 -192z" />
    <glyph glyph-name="uni0406" unicode="&#x406;" horiz-adv-x="599" 
d="M196 0v1462h205v-1462h-205z" />
    <glyph glyph-name="uni0407" unicode="&#x407;" horiz-adv-x="599" 
d="M196 0v1462h205v-1462h-205zM3 1758q0 55 30 80.5t73 25.5t73.5 -25.5t30.5 -80.5q0 -54 -30.5 -80.5t-73.5 -26.5t-73 26.5t-30 80.5zM392 1758q0 55 29.5 80.5t72.5 25.5t74 -25.5t31 -80.5q0 -54 -31 -80.5t-74 -26.5t-72.5 26.5t-29.5 80.5z" />
    <glyph glyph-name="uni0408" unicode="&#x408;" horiz-adv-x="582" 
d="M0 -396q-53 0 -93 7t-68 18v173q32 -9 69 -15t79 -6q56 0 102 22t73 76t27 150v1433h206v-1423q0 -149 -48.5 -245.5t-137.5 -143t-209 -46.5z" />
    <glyph glyph-name="uni0409" unicode="&#x409;" horiz-adv-x="1948" 
d="M139 -22q-36 0 -71 6.5t-63 16.5v171q24 -10 51.5 -16.5t59.5 -6.5q57 0 91 43.5t55 118.5t39 168q13 66 29.5 167t35.5 230t39.5 278t41.5 308h723v-607h133q205 0 328 -54t177.5 -148.5t54.5 -217.5q0 -202 -130.5 -318.5t-411.5 -116.5h-355v1285h-348
q-11 -86 -23.5 -180t-26 -190t-27 -188t-27 -173.5t-26.5 -147.5q-27 -136 -66.5 -231.5t-106.5 -146t-176 -50.5zM1170 173h134q176 0 263 63.5t87 198.5q0 93 -42.5 147t-126.5 76.5t-209 22.5h-106v-508z" />
    <glyph glyph-name="uni040A" unicode="&#x40a;" horiz-adv-x="1985" 
d="M196 0v1462h205v-610h601v610h206v-607h132q204 0 327 -54t178 -148.5t55 -217.5q0 -202 -131 -318.5t-410 -116.5h-357v675h-601v-675h-205zM1208 173h134q175 0 262 63.5t87 198.5q0 93 -42.5 147t-126 76.5t-208.5 22.5h-106v-508z" />
    <glyph glyph-name="uni040B" unicode="&#x40b;" horiz-adv-x="1539" 
d="M1065 1462v-178h-491v-382h401q202 0 310.5 -95.5t108.5 -279.5v-527h-204v506q0 114 -52.5 166.5t-177.5 52.5h-386v-725h-205v1284h-345v178h1041z" />
    <glyph glyph-name="uni040C" unicode="&#x40c;" horiz-adv-x="1281" 
d="M1280 0h-242l-637 742v-742h-205v1462h205v-708l622 708h229l-618 -708zM1010 1930v-20q-22 -29 -59.5 -69.5t-82.5 -85t-90 -84.5t-82 -69h-134v25q32 38 71.5 91t77.5 109.5t63 102.5h236z" />
    <glyph glyph-name="uni040D" unicode="&#x40d;" horiz-adv-x="1589" 
d="M198 1462h189v-810q0 -49 -1.5 -107t-3.5 -114t-4.5 -100t-4.5 -66h8l779 1197h233v-1462h-188v802q0 54 2 115t4.5 118.5t5.5 102t4 66.5h-8l-781 -1204h-234v1462zM752 1930q26 -46 63 -102.5t77.5 -109.5t73.5 -91v-25h-135q-37 29 -82 69t-90 84.5t-82 85t-59 69.5
v20h234z" />
    <glyph glyph-name="uni040E" unicode="&#x40e;" horiz-adv-x="1288" 
d="M1288 1462l-470 -1053q-62 -140 -127 -236t-157.5 -144.5t-236.5 -48.5q-57 0 -110 8.5t-96 21.5v193q43 -19 92.5 -29t101.5 -10q74 0 126 23.5t89.5 72t70.5 124.5l-549 1078h221l380 -771q9 -16 19 -39t20.5 -47t17.5 -46h8q7 18 16 42t18.5 48t17.5 42l333 771h215z
M1060 1921q-9 -102 -52.5 -173.5t-129.5 -108.5t-224 -37q-142 0 -226 36t-123 107t-46 176h185q11 -111 59 -150t155 -39q94 0 149.5 41.5t66.5 147.5h186z" />
    <glyph glyph-name="uni040F" unicode="&#x40f;" horiz-adv-x="1500" 
d="M1302 0h-453v-393h-206v393h-447v1462h205v-1283h698v1283h203v-1462z" />
    <glyph glyph-name="uni0410" unicode="&#x410;" horiz-adv-x="1325" 
d="M1108 0l-162 435h-573l-160 -435h-213l558 1468h210l555 -1468h-215zM889 613l-154 431q-7 22 -21.5 66t-29 91t-23.5 78q-10 -41 -23 -86.5t-25.5 -85t-20.5 -63.5l-156 -431h453z" />
    <glyph glyph-name="uni0411" unicode="&#x411;" horiz-adv-x="1267" 
d="M196 0v1462h875v-176h-670v-431h201q210 0 332 -53t174.5 -148t52.5 -219q0 -206 -126.5 -320.5t-414.5 -114.5h-424zM401 173h202q184 0 266 63.5t82 198.5q0 93 -39.5 147t-122.5 76.5t-214 22.5h-174v-508z" />
    <glyph glyph-name="uni0412" unicode="&#x412;" horiz-adv-x="1336" 
d="M196 1462h424q279 0 420 -82t141 -281q0 -85 -31 -152t-90 -111t-145 -60v-10q90 -15 160 -54t110.5 -110.5t40.5 -183.5q0 -134 -63 -227.5t-178.5 -142t-274.5 -48.5h-514v1462zM401 847h255q177 0 245 58t68 169q0 115 -81 165.5t-257 50.5h-230v-443zM401 678v-505
h279q181 0 255.5 71t74.5 191q0 76 -33.5 130.5t-108.5 83.5t-202 29h-265z" />
    <glyph glyph-name="uni0413" unicode="&#x413;" horiz-adv-x="1086" 
d="M1043 1462v-178h-642v-1284h-205v1462h847z" />
    <glyph glyph-name="uni0414" unicode="&#x414;" horiz-adv-x="1442" 
d="M1213 1462v-1283h184v-572h-197v393h-991v-393h-197v572h112q70 124 132.5 275.5t112.5 319t84 342t47 346.5h713zM1009 1283h-335q-11 -120 -40.5 -264t-75 -295.5t-101 -292t-117.5 -252.5h669v1104z" />
    <glyph glyph-name="uni0415" unicode="&#x415;" horiz-adv-x="1140" 
d="M1017 0h-821v1462h821v-176h-616v-435h579v-174h-579v-500h616v-177z" />
    <glyph glyph-name="uni0416" unicode="&#x416;" horiz-adv-x="1775" 
d="M579 754l-552 708h221l542 -708v708h195v-708l541 708h222l-552 -707l575 -755h-230l-556 741v-741h-195v741l-557 -741h-230z" />
    <glyph glyph-name="uni0417" unicode="&#x417;" horiz-adv-x="1227" 
d="M1088 1119q0 -148 -95 -235.5t-251 -112.5v-7q185 -24 282.5 -114.5t97.5 -236.5q0 -129 -66 -226.5t-197 -152t-325 -54.5q-131 0 -244 19t-204 61v183q62 -30 136 -52t150.5 -33.5t144.5 -11.5q197 0 296 71.5t99 201.5q0 133 -120.5 194t-335.5 61h-191v168h183
q151 0 246.5 31t140.5 87.5t45 134.5q0 105 -79 162.5t-213 57.5q-133 0 -226 -34.5t-179 -90.5l-95 139q62 44 139 79t170 55t203 20q157 0 266 -46.5t165.5 -128.5t56.5 -189z" />
    <glyph glyph-name="uni0418" unicode="&#x418;" horiz-adv-x="1589" 
d="M198 1462h189v-810q0 -49 -1.5 -107t-3.5 -114t-4.5 -100t-4.5 -66h8l779 1197h233v-1462h-188v802q0 54 2 115t4.5 118.5t5.5 102t4 66.5h-8l-781 -1204h-234v1462z" />
    <glyph glyph-name="uni0419" unicode="&#x419;" horiz-adv-x="1589" 
d="M198 1462h189v-810q0 -49 -1.5 -107t-3.5 -114t-4.5 -100t-4.5 -66h8l779 1197h233v-1462h-188v802q0 54 2 115t4.5 118.5t5.5 102t4 66.5h-8l-781 -1204h-234v1462zM1222 1921q-9 -102 -52.5 -173.5t-129.5 -108.5t-224 -37q-142 0 -226 36t-123 107t-46 176h185
q11 -111 59 -150t155 -39q94 0 149.5 41.5t66.5 147.5h186z" />
    <glyph glyph-name="uni041A" unicode="&#x41a;" horiz-adv-x="1281" 
d="M1280 0h-242l-637 742v-742h-205v1462h205v-708l622 708h229l-618 -708z" />
    <glyph glyph-name="uni041B" unicode="&#x41b;" horiz-adv-x="1462" 
d="M1265 0h-204v1285h-445q-14 -107 -29.5 -226.5t-32 -238.5t-33.5 -225.5t-33 -188.5q-26 -136 -66 -231.5t-107 -146t-176 -50.5q-36 0 -71.5 6.5t-62.5 16.5v171q24 -10 51.5 -16.5t59.5 -6.5q57 0 91 44.5t55.5 119t38.5 164.5q12 64 28.5 165t35.5 231t39.5 280
t40.5 309h820v-1462z" />
    <glyph glyph-name="uni041C" unicode="&#x41c;" horiz-adv-x="1864" 
d="M833 0l-456 1257h-8q3 -41 6.5 -105.5t6 -140t2.5 -148.5v-863h-188v1462h295l433 -1191h7l444 1191h293v-1462h-198v875q0 66 2 137.5t5.5 136t6.5 106.5h-9l-467 -1255h-175z" />
    <glyph glyph-name="uni041D" unicode="&#x41d;" horiz-adv-x="1524" 
d="M1327 0h-205v675h-721v-675h-205v1462h205v-610h721v610h205v-1462z" />
    <glyph glyph-name="uni041E" unicode="&#x41e;" horiz-adv-x="1602" 
d="M1479 733q0 -169 -43 -307.5t-127.5 -238t-211 -153.5t-295.5 -54q-172 0 -299.5 54t-211.5 154t-125.5 239t-41.5 308q0 225 74 394t225.5 262.5t381.5 93.5q222 0 372 -93t226 -261.5t76 -397.5zM339 733q0 -178 49.5 -307.5t152 -200t261.5 -70.5q161 0 263 70.5
t150 200t48 307.5q0 270 -110 422.5t-348 152.5q-160 0 -263 -69.5t-153 -198t-50 -307.5z" />
    <glyph glyph-name="uni041F" unicode="&#x41f;" horiz-adv-x="1500" 
d="M196 0v1462h1106v-1462h-203v1285h-698v-1285h-205z" />
    <glyph glyph-name="uni0420" unicode="&#x420;" horiz-adv-x="1246" 
d="M599 1462q283 0 413.5 -113t130.5 -321q0 -94 -30 -178.5t-97.5 -149t-177.5 -102t-270 -37.5h-167v-561h-205v1462h403zM583 1290h-182v-556h145q127 0 213 28.5t130 91.5t44 166q0 136 -85 203t-265 67z" />
    <glyph glyph-name="uni0421" unicode="&#x421;" horiz-adv-x="1294" 
d="M820 1306q-113 0 -202.5 -39.5t-151.5 -115t-95 -181.5t-33 -239q0 -177 52.5 -306t158.5 -199t267 -70q96 0 183.5 17.5t174.5 45.5v-176q-84 -32 -173.5 -47.5t-209.5 -15.5q-224 0 -372.5 93t-221.5 261.5t-73 397.5q0 166 46 303.5t135 238t218.5 155t298.5 54.5
q110 0 214.5 -23.5t192.5 -65.5l-76 -171q-73 33 -156.5 58t-176.5 25z" />
    <glyph glyph-name="uni0422" unicode="&#x422;" horiz-adv-x="1143" 
d="M674 0h-206v1285h-444v177h1093v-177h-443v-1285z" />
    <glyph glyph-name="uni0423" unicode="&#x423;" horiz-adv-x="1288" 
d="M1288 1462l-470 -1053q-62 -140 -127 -236t-157.5 -144.5t-236.5 -48.5q-57 0 -110 8.5t-96 21.5v193q43 -19 92.5 -29t101.5 -10q74 0 126 23.5t89.5 72t70.5 124.5l-549 1078h221l380 -771q9 -16 19 -39t20.5 -47t17.5 -46h8q7 18 16 42t18.5 48t17.5 42l333 771h215z
" />
    <glyph glyph-name="uni0424" unicode="&#x424;" horiz-adv-x="1664" 
d="M929 1483v-180q234 -4 372.5 -77.5t199 -194.5t60.5 -271q0 -102 -32 -199.5t-104.5 -176.5t-194 -127.5t-301.5 -51.5v-225h-195v225q-183 3 -305.5 53t-194 129.5t-102 176t-30.5 194.5q0 110 33.5 207t107.5 172t195 119t296 47v180h195zM734 1135q-158 -5 -252.5 -52
t-136 -129.5t-41.5 -193.5q0 -117 46 -203t141 -134t243 -53v765zM929 1135v-765q152 5 246.5 54t139 135.5t44.5 202.5q0 111 -41.5 193t-135.5 128.5t-253 51.5z" />
    <glyph glyph-name="uni0425" unicode="&#x425;" horiz-adv-x="1229" 
d="M1224 0h-234l-381 621l-386 -621h-218l486 760l-453 702h227l353 -569l352 569h219l-454 -704z" />
    <glyph glyph-name="uni0426" unicode="&#x426;" horiz-adv-x="1532" 
d="M1488 174v-567h-197v393h-1095v1462h205v-1283h698v1283h203v-1288h186z" />
    <glyph glyph-name="uni0427" unicode="&#x427;" horiz-adv-x="1438" 
d="M1241 0h-204v596q-120 -43 -225.5 -68t-228.5 -25q-207 0 -318.5 96.5t-111.5 276.5v586h204v-546q0 -117 61 -176.5t199 -59.5q114 0 208.5 21.5t211.5 62.5v698h204v-1462z" />
    <glyph glyph-name="uni0428" unicode="&#x428;" horiz-adv-x="2137" 
d="M1939 0h-1743v1462h205v-1283h563v1283h205v-1283h564v1283h206v-1462z" />
    <glyph glyph-name="uni0429" unicode="&#x429;" horiz-adv-x="2163" 
d="M2105 174v-567h-197v393h-1712v1462h205v-1283h553v1283h207v-1283h554v1283h205v-1288h185z" />
    <glyph glyph-name="uni042A" unicode="&#x42a;" horiz-adv-x="1426" 
d="M359 0v1285h-348v177h552v-607h210q201 0 321.5 -54t175 -149.5t54.5 -216.5q0 -202 -129 -318.5t-405 -116.5h-431zM563 173h210q172 0 256.5 63.5t84.5 198.5q0 93 -41.5 147t-123 76.5t-203.5 22.5h-183v-508z" />
    <glyph glyph-name="uni042B" unicode="&#x42b;" horiz-adv-x="1767" 
d="M196 0v1462h205v-607h201q199 0 319.5 -54t174.5 -149.5t54 -216.5q0 -202 -128.5 -318.5t-405.5 -116.5h-420zM401 172h200q170 0 254 64t84 199q0 93 -40 146.5t-120 75.5t-200 22h-178v-507zM1361 0v1462h204v-1462h-204z" />
    <glyph glyph-name="uni042C" unicode="&#x42c;" horiz-adv-x="1300" 
d="M196 0v1462h205v-607h239q200 0 323 -54t179 -149.5t56 -216.5q0 -202 -133 -318.5t-409 -116.5h-460zM401 173h238q172 0 260.5 63.5t88.5 198.5q0 93 -43.5 147t-127 76.5t-203.5 22.5h-213v-508z" />
    <glyph glyph-name="uni042D" unicode="&#x42d;" horiz-adv-x="1308" 
d="M494 1306q-100 0 -188.5 -24t-163.5 -58l-77 170q91 42 201.5 65.5t230.5 23.5q171 0 300 -52.5t214.5 -150.5t128.5 -232.5t43 -298.5q0 -234 -77.5 -407t-234 -267.5t-393.5 -94.5q-127 0 -218.5 15.5t-180.5 47.5v176q93 -26 184 -44.5t191 -18.5q124 0 218 34
t158.5 99.5t99 161t37.5 218.5h-701v176h699q-7 109 -43 194t-97 145t-144.5 91t-186.5 31z" />
    <glyph glyph-name="uni042E" unicode="&#x42e;" horiz-adv-x="2157" 
d="M2033 733q0 -169 -40.5 -307.5t-121 -238.5t-202 -153.5t-282.5 -53.5q-207 0 -347.5 86t-215 242t-84.5 366h-339v-674h-205v1462h205v-611h342q16 192 92 335t213.5 221t337.5 78q213 0 357 -93.5t217 -262.5t73 -396zM953 735q0 -178 45.5 -308t141 -201t244.5 -71
q152 0 248.5 70.5t141.5 200t45 307.5t-45 307t-140 198.5t-246 69.5t-247 -69t-142 -197.5t-46 -306.5z" />
    <glyph glyph-name="uni042F" unicode="&#x42f;" horiz-adv-x="1312" 
d="M638 599l-371 -599h-235l411 642q-75 25 -142 72t-108.5 128.5t-41.5 207.5q0 201 138.5 306.5t406.5 105.5h420v-1462h-205v599h-273zM911 1290h-207q-111 0 -187.5 -26t-116.5 -81t-40 -144q0 -129 85 -199t260 -70h206v520z" />
    <glyph glyph-name="uni0430" unicode="&#x430;" horiz-adv-x="1163" 
d="M593 1121q204 0 305 -90.5t101 -285.5v-745h-144l-39 160h-8q-46 -60 -96 -100t-115.5 -60t-159.5 -20q-100 0 -178 36t-122.5 108.5t-44.5 184.5q0 168 129 255t391 95l190 8v62q0 129 -57.5 182t-160.5 53q-85 0 -163 -24.5t-150 -58.5l-64 146q78 40 177.5 67
t208.5 27zM800 535l-154 -7q-191 -7 -268.5 -63.5t-77.5 -157.5q0 -88 53 -129t140 -41q134 0 220.5 75.5t86.5 223.5v99z" />
    <glyph glyph-name="uni0431" unicode="&#x431;" horiz-adv-x="1232" 
d="M112 661q0 237 49 404.5t153 269t270 138.5q123 31 249.5 53t250.5 40l31 -176q-61 -8 -128 -18.5t-134 -21.5t-127.5 -23t-107.5 -25q-89 -21 -152 -72t-98.5 -144.5t-43.5 -242.5h13q29 42 79 84.5t120 70.5t159 28q140 0 235.5 -60t145 -170.5t49.5 -262.5
q0 -182 -63.5 -305.5t-177.5 -185.5t-267 -62q-118 0 -211.5 45t-159 132.5t-100 214t-34.5 289.5zM631 145q88 0 151.5 37.5t98.5 118.5t35 213q0 164 -61 257.5t-197 93.5q-85 0 -154.5 -36.5t-117.5 -86.5t-69 -89q0 -96 14.5 -186.5t49 -163.5t96 -115.5t154.5 -42.5z
" />
    <glyph glyph-name="uni0432" unicode="&#x432;" horiz-adv-x="1204" 
d="M1072 822q0 -100 -59 -159t-158 -78v-8q107 -14 180.5 -75.5t73.5 -177.5q0 -95 -46.5 -168t-145.5 -114.5t-259 -41.5h-487v1102h484q122 0 215.5 -27t147.5 -88t54 -165zM900 328q0 89 -68 128.5t-198 39.5h-261v-342h265q125 0 193.5 40t68.5 134zM868 802
q0 71 -53 106.5t-170 35.5h-272v-292h241q126 0 190 36.5t64 113.5z" />
    <glyph glyph-name="uni0433" unicode="&#x433;" horiz-adv-x="907" 
d="M863 1102v-163h-490v-939h-202v1102h692z" />
    <glyph glyph-name="uni0434" unicode="&#x434;" horiz-adv-x="1223" 
d="M1025 1102v-940h159v-546h-190v384h-770v-384h-187v546h88q89 125 148 277.5t91 321t37 341.5h624zM828 945h-252q-11 -140 -42.5 -282t-81.5 -271t-118 -230h494v783z" />
    <glyph glyph-name="uni0435" unicode="&#x435;" horiz-adv-x="1165" 
d="M603 1122q144 0 247 -61.5t158 -173.5t55 -264v-114h-748q3 -177 91 -271.5t247 -94.5q105 0 187 20t170 59v-169q-83 -38 -166.5 -55.5t-199.5 -17.5q-160 0 -280.5 64t-187.5 189.5t-67 309.5q0 182 61 311.5t172 198.5t261 69zM602 966q-122 0 -196 -79.5t-87 -227.5
h542q-1 91 -29 160t-84.5 108t-145.5 39z" />
    <glyph glyph-name="uni0436" unicode="&#x436;" horiz-adv-x="1576" 
d="M1532 1102l-445 -534l484 -568h-224l-467 559v-559h-187v559l-466 -559h-224l484 568l-446 534h216l436 -535v535h187v-535l437 535h215z" />
    <glyph glyph-name="uni0437" unicode="&#x437;" horiz-adv-x="1027" 
d="M485 1122q122 0 216 -33t147 -97.5t53 -159.5q0 -99 -56 -158t-152 -85v-9q68 -18 123 -50t88 -86t33 -135q0 -92 -52.5 -167t-159 -118.5t-271.5 -43.5q-80 0 -151.5 8.5t-130 24.5t-102.5 38v176q70 -34 165.5 -60t206.5 -26q84 0 151 17.5t106.5 57.5t39.5 105
q0 60 -35 99t-104.5 58t-176.5 19h-140v155h119q144 0 227.5 36.5t83.5 124.5q0 75 -62 112t-183 37q-87 0 -162.5 -18.5t-156.5 -52.5l-67 153q89 38 188 58t215 20z" />
    <glyph glyph-name="uni0438" unicode="&#x438;" horiz-adv-x="1345" 
d="M364 1102v-628q0 -23 -1.5 -59.5t-4 -76.5t-4.5 -75t-4 -54l577 893h245v-1102h-190v616q0 37 1.5 91.5t4.5 105.5t4 79l-575 -892h-246v1102h193z" />
    <glyph glyph-name="uni0439" unicode="&#x439;" horiz-adv-x="1345" 
d="M364 1102v-628q0 -23 -1.5 -59.5t-4 -76.5t-4.5 -75t-4 -54l577 893h245v-1102h-190v616q0 37 1.5 91.5t4.5 105.5t4 79l-575 -892h-246v1102h193zM1089 1560q-9 -102 -52.5 -173.5t-129.5 -108.5t-224 -37q-142 0 -226 36t-123 107t-46 176h185q11 -111 59 -150t155 -39
q94 0 149.5 41.5t66.5 147.5h186z" />
    <glyph glyph-name="uni043A" unicode="&#x43a;" horiz-adv-x="1111" 
d="M834 1102h221l-465 -531l503 -571h-232l-488 559v-559h-202v1102h202v-535z" />
    <glyph glyph-name="uni043B" unicode="&#x43b;" horiz-adv-x="1209" 
d="M1038 0h-203v940h-320q-20 -256 -50 -437.5t-75.5 -296t-110.5 -168t-157 -53.5q-33 0 -62 4.5t-50 13.5v156q15 -6 32 -8.5t36 -2.5q41 0 75.5 33.5t63 105t52 183.5t41.5 269.5t32 362.5h696v-1102z" />
    <glyph glyph-name="uni043C" unicode="&#x43c;" horiz-adv-x="1559" 
d="M1391 1102v-1102h-183v673q0 53 2.5 106.5t6.5 104.5h-6l-350 -884h-163l-345 885h-6q4 -51 6 -104.5t2 -114.5v-666h-184v1102h275l335 -862l340 862h270z" />
    <glyph glyph-name="uni043D" unicode="&#x43d;" horiz-adv-x="1311" 
d="M373 1102v-453h565v453h200v-1102h-200v487h-565v-487h-202v1102h202z" />
    <glyph glyph-name="uni043E" unicode="&#x43e;" horiz-adv-x="1241" 
d="M1134 553q0 -136 -35.5 -242.5t-103 -180t-162.5 -112t-215 -38.5q-112 0 -205.5 38.5t-161.5 112t-105 180t-37 242.5q0 181 62 308.5t177.5 194t275.5 66.5q152 0 267 -67t179 -194t64 -308zM315 553q0 -127 32.5 -218.5t100 -140.5t174.5 -49q105 0 173 49t100 140.5
t32 218.5q0 126 -32 216t-99.5 138t-175.5 48q-158 0 -231.5 -105.5t-73.5 -296.5z" />
    <glyph glyph-name="uni043F" unicode="&#x43f;" horiz-adv-x="1286" 
d="M1114 1102v-1102h-202v937h-539v-937h-202v1102h943z" />
    <glyph glyph-name="uni0440" unicode="&#x440;" horiz-adv-x="1264" 
d="M713 1122q201 0 321.5 -142.5t120.5 -425.5q0 -188 -55.5 -315.5t-156 -193t-235.5 -65.5q-85 0 -149 22.5t-109.5 60t-76.5 80.5h-13q4 -39 8.5 -90.5t4.5 -92.5v-450h-202v1592h165l27 -158h10q31 49 76.5 89.5t110.5 64.5t153 24zM667 956q-106 0 -169.5 -41.5
t-93 -123.5t-31.5 -206v-32q0 -132 28 -222.5t93 -138t175 -47.5q94 0 156.5 51t93 144t30.5 216q0 187 -69 293.5t-213 106.5z" />
    <glyph glyph-name="uni0441" unicode="&#x441;" horiz-adv-x="999" 
d="M614 -20q-152 0 -266 61t-176.5 186.5t-62.5 317.5q0 200 67 327.5t185.5 188.5t271.5 61q90 0 168.5 -18t131.5 -45l-60 -163q-56 22 -120.5 39t-122.5 17q-106 0 -175.5 -46.5t-104.5 -136.5t-35 -222q0 -128 34.5 -216.5t102 -134.5t168.5 -46q89 0 160 20t131 51
v-177q-58 -32 -128 -48t-169 -16z" />
    <glyph glyph-name="uni0442" unicode="&#x442;" horiz-adv-x="1006" 
d="M963 939h-362v-939h-200v939h-358v163h920v-163z" />
    <glyph glyph-name="uni0443" unicode="&#x443;" horiz-adv-x="1061" 
d="M2 1102h217l234 -635q18 -49 33.5 -95.5t27 -90t18.5 -85.5h7q12 51 34 124t48 148l224 634h216l-476 -1258q-39 -105 -94.5 -180.5t-131.5 -116t-180 -40.5q-48 0 -84.5 5.5t-62.5 12.5v160q22 -5 53.5 -9t65.5 -4q63 0 108.5 24.5t78 69.5t54.5 105l50 130z" />
    <glyph glyph-name="uni0444" unicode="&#x444;" horiz-adv-x="1516" 
d="M853 1556v-441q171 -14 295 -85.5t191.5 -193t67.5 -285.5q0 -162 -65 -284t-188.5 -194t-300.5 -87v-478h-192v478q-170 14 -294 85.5t-192 193.5t-68 286q0 165 64.5 287t189 193t304.5 84v441h188zM665 954q-118 -11 -195.5 -62t-116 -137.5t-38.5 -203.5
q0 -118 38.5 -204.5t116 -137.5t195.5 -63v808zM853 952v-806q118 13 195 64.5t115 137.5t38 203q0 176 -87.5 279t-260.5 122z" />
    <glyph glyph-name="uni0445" unicode="&#x445;" horiz-adv-x="1100" 
d="M424 564l-374 538h229l271 -406l271 406h227l-375 -538l395 -564h-229l-289 431l-291 -431h-227z" />
    <glyph glyph-name="uni0446" unicode="&#x446;" horiz-adv-x="1314" 
d="M1277 -384h-190v384h-916v1102h202v-939h547v939h201v-942h156v-544z" />
    <glyph glyph-name="uni0447" unicode="&#x447;" horiz-adv-x="1268" 
d="M347 1102v-398q0 -96 51.5 -141.5t148.5 -45.5q100 0 182.5 29t166.5 78v478h201v-1102h-201v479q-87 -53 -176.5 -86.5t-211.5 -33.5q-171 0 -266.5 88t-95.5 246v409h201z" />
    <glyph glyph-name="uni0448" unicode="&#x448;" horiz-adv-x="1863" 
d="M1690 1102v-1102h-1519v1102h201v-939h458v939h201v-939h458v939h201z" />
    <glyph glyph-name="uni0449" unicode="&#x449;" horiz-adv-x="1883" 
d="M1689 1102v-942h159v-543h-194v383h-1483v1102h201v-939h458v939h201v-939h458v939h200z" />
    <glyph glyph-name="uni044A" unicode="&#x44a;" horiz-adv-x="1419" 
d="M578 1102v-447h292q153 0 253 -35.5t149 -105.5t49 -174t-46.5 -180t-146 -118t-259.5 -42h-492v939h-348v163h549zM863 497h-285v-343h287q118 0 187 41.5t69 137.5q0 91 -64 127.5t-194 36.5z" />
    <glyph glyph-name="uni044B" unicode="&#x44b;" horiz-adv-x="1615" 
d="M171 0v1102h202v-447h262q147 0 243 -35.5t142.5 -105.5t46.5 -174t-45 -180t-141.5 -118t-251.5 -42h-458zM373 154h240q115 0 185 41t70 138q0 92 -65 128.5t-187 36.5h-243v-344zM1243 0v1102h201v-1102h-201z" />
    <glyph glyph-name="uni044C" unicode="&#x44c;" horiz-adv-x="1220" 
d="M373 655h306q148 0 245.5 -35.5t146 -105.5t48.5 -174t-46.5 -180t-144.5 -118t-254 -42h-503v1102h202v-447zM918 333q0 92 -66.5 128.5t-188.5 36.5h-290v-344h292q112 0 182.5 41.5t70.5 137.5z" />
    <glyph glyph-name="uni044D" unicode="&#x44d;" horiz-adv-x="1021" 
d="M370 -20q-96 0 -168 15.5t-135 45.5v168q65 -27 139 -46.5t162 -19.5q102 0 175 37.5t115 114t48 193.5h-522v153h521q-12 161 -88 239t-225 78q-62 0 -131.5 -17t-125.5 -39l-56 154q60 27 143.5 46.5t172.5 19.5q153 0 270 -56.5t183 -180.5t66 -330q0 -193 -67.5 -321
t-189.5 -191t-287 -63z" />
    <glyph glyph-name="uni044E" unicode="&#x44e;" horiz-adv-x="1723" 
d="M1614 553q0 -181 -59 -309.5t-168.5 -196t-261.5 -67.5q-139 0 -244 58t-167 171t-73 278h-269v-487h-201v1102h201v-453h271q16 151 78 256t166 161t242 56q146 0 255 -67.5t169.5 -194.5t60.5 -307zM845 553q0 -131 29 -222t91 -138.5t162 -47.5q99 0 161 47t91 138
t29 223q0 130 -29.5 220t-91 136t-160.5 46t-161 -46t-91.5 -136t-29.5 -220z" />
    <glyph glyph-name="uni044F" unicode="&#x44f;" horiz-adv-x="1154" 
d="M254 0h-228l312 457q-66 17 -123 55t-92 102.5t-35 158.5q0 160 111 244.5t290 84.5h494v-1102h-201v434h-250zM284 772q0 -91 66 -136.5t186 -45.5h246v354h-278q-116 0 -168 -48.5t-52 -123.5z" />
    <glyph glyph-name="uni0450" unicode="&#x450;" horiz-adv-x="1165" 
d="M603 1122q144 0 247 -61.5t158 -173.5t55 -264v-114h-748q3 -177 91 -271.5t247 -94.5q105 0 187 20t170 59v-169q-83 -38 -166.5 -55.5t-199.5 -17.5q-160 0 -280.5 64t-187.5 189.5t-67 309.5q0 182 61 311.5t172 198.5t261 69zM602 966q-122 0 -196 -79.5t-87 -227.5
h542q-1 91 -29 160t-84.5 108t-145.5 39zM525 1569q26 -46 63 -102.5t77.5 -109.5t73.5 -91v-25h-135q-37 29 -82 69t-90 84.5t-82 85t-59 69.5v20h234z" />
    <glyph glyph-name="uni0451" unicode="&#x451;" horiz-adv-x="1165" 
d="M603 1122q144 0 247 -61.5t158 -173.5t55 -264v-114h-748q3 -177 91 -271.5t247 -94.5q105 0 187 20t170 59v-169q-83 -38 -166.5 -55.5t-199.5 -17.5q-160 0 -280.5 64t-187.5 189.5t-67 309.5q0 182 61 311.5t172 198.5t261 69zM602 966q-122 0 -196 -79.5t-87 -227.5
h542q-1 91 -29 160t-84.5 108t-145.5 39zM291 1397q0 55 30 80.5t73 25.5t73.5 -25.5t30.5 -80.5q0 -54 -30.5 -80.5t-73.5 -26.5t-73 26.5t-30 80.5zM680 1397q0 55 29.5 80.5t72.5 25.5t74 -25.5t31 -80.5q0 -54 -31 -80.5t-74 -26.5t-72.5 26.5t-29.5 80.5z" />
    <glyph glyph-name="uni0452" unicode="&#x452;" horiz-adv-x="1279" 
d="M818 -492q-46 0 -83.5 7.5t-64.5 17.5v163q28 -10 55.5 -15.5t59.5 -5.5q56 0 93.5 37.5t37.5 135.5v807q0 131 -58.5 195t-175.5 64q-114 0 -181.5 -46t-97 -133.5t-29.5 -214.5v-520h-203v1233h-155v143h155v180h201v-180h383v-143h-383v-148q0 -50 -3 -98.5t-6 -82.5
h12q34 58 86 96.5t117.5 58.5t139.5 20q129 0 218 -42t134.5 -131t45.5 -229v-835q0 -102 -32 -177t-98 -116t-168 -41z" />
    <glyph glyph-name="uni0453" unicode="&#x453;" horiz-adv-x="907" 
d="M863 1102v-163h-490v-939h-202v1102h692zM838 1569v-20q-22 -29 -59.5 -69.5t-82.5 -85t-90 -84.5t-82 -69h-134v25q32 38 71.5 91t77.5 109.5t63 102.5h236z" />
    <glyph glyph-name="uni0454" unicode="&#x454;" horiz-adv-x="1026" 
d="M638 -20q-158 0 -277.5 60t-185.5 185t-66 320q0 206 68.5 333t189.5 185.5t277 58.5q86 0 167.5 -17t145.5 -45l-59 -157q-61 24 -129.5 39.5t-128.5 15.5q-99 0 -167.5 -35.5t-107 -105.5t-48.5 -176h520v-153h-522q7 -114 43 -191t104 -115.5t169 -38.5q92 0 166 19.5
t141 46.5v-167q-62 -30 -133.5 -46t-166.5 -16z" />
    <glyph glyph-name="uni0455" unicode="&#x455;" horiz-adv-x="987" 
d="M898 308q0 -107 -52.5 -180.5t-152.5 -110.5t-240 -37q-116 0 -200 17.5t-152 50.5v178q73 -35 169 -62t188 -27q129 0 186.5 41t57.5 111q0 41 -23 72.5t-80.5 63t-164.5 72.5q-105 41 -179.5 82t-113.5 99t-39 150q0 143 114.5 218.5t302.5 75.5q100 0 188.5 -20
t169.5 -56l-65 -155q-72 31 -148 51.5t-155 20.5q-103 0 -157.5 -33t-54.5 -91q0 -45 25.5 -75t85.5 -58.5t162 -67.5q101 -38 174.5 -79t113.5 -100t40 -151z" />
    <glyph glyph-name="uni0456" unicode="&#x456;" horiz-adv-x="544" 
d="M372 1102v-1102h-201v1102h201zM273 1519q48 0 82.5 -28t34.5 -91t-34.5 -91.5t-82.5 -28.5q-49 0 -82.5 28.5t-33.5 91.5t33.5 91t82.5 28z" />
    <glyph glyph-name="uni0457" unicode="&#x457;" horiz-adv-x="544" 
d="M372 0h-201v1102h201v-1102zM-26 1397q0 55 30 80.5t73 25.5t73.5 -25.5t30.5 -80.5q0 -54 -30.5 -80.5t-73.5 -26.5t-73 26.5t-30 80.5zM363 1397q0 55 29.5 80.5t72.5 25.5t74 -25.5t31 -80.5q0 -54 -31 -80.5t-74 -26.5t-72.5 26.5t-29.5 80.5z" />
    <glyph glyph-name="uni0458" unicode="&#x458;" horiz-adv-x="544" 
d="M50 -492q-51 0 -93.5 7.5t-73.5 17.5v161q33 -10 65 -15t72 -5q67 0 109 37t42 137v1254h201v-1262q0 -100 -33.5 -175t-105 -116t-183.5 -41zM157 1400q0 63 33.5 91t82.5 28q48 0 82.5 -28t34.5 -91t-34.5 -91.5t-82.5 -28.5q-49 0 -82.5 28.5t-33.5 91.5z" />
    <glyph glyph-name="uni0459" unicode="&#x459;" horiz-adv-x="1744" 
d="M977 1102v-447h235q147 0 242.5 -35.5t142.5 -105.5t47 -174t-45.5 -180t-144 -118t-256.5 -42h-423v939h-261q-20 -256 -50 -437.5t-75.5 -295.5t-110 -167.5t-154.5 -53.5q-36 0 -64.5 4.5t-49.5 13.5v154q14 -4 31 -7.5t35 -3.5q41 0 76 34t64 105.5t52 184t41.5 270
t32.5 362.5h635zM1186 497h-209v-343h212q114 0 184 41.5t70 137.5q0 91 -65.5 127.5t-191.5 36.5z" />
    <glyph glyph-name="uni045A" unicode="&#x45a;" horiz-adv-x="1821" 
d="M1051 1102v-449h232q150 0 246 -35t142.5 -104.5t46.5 -173.5t-45 -180t-142.5 -118t-256.5 -42h-428v489h-471v-489h-204v1102h204v-451h474v451h202zM1263 497h-215v-343h216q115 0 184.5 41.5t69.5 137.5q0 91 -64.5 127.5t-190.5 36.5z" />
    <glyph glyph-name="uni045B" unicode="&#x45b;" horiz-adv-x="1279" 
d="M372 1556v-180h410v-145h-410v-146q0 -51 -3 -99.5t-7 -81.5h13q34 58 85.5 96.5t117.5 58.5t140 20q129 0 217 -42.5t134 -131.5t46 -229v-676h-199v648q0 133 -58 199.5t-178 66.5q-114 0 -182 -46t-97 -133.5t-29 -214.5v-520h-201v1231h-155v145h155v180h201z" />
    <glyph glyph-name="uni045C" unicode="&#x45c;" horiz-adv-x="1111" 
d="M834 1102h221l-465 -531l503 -571h-232l-488 559v-559h-202v1102h202v-535zM905 1569v-20q-22 -29 -59.5 -69.5t-82.5 -85t-90 -84.5t-82 -69h-134v25q32 38 71.5 91t77.5 109.5t63 102.5h236z" />
    <glyph glyph-name="uni045D" unicode="&#x45d;" horiz-adv-x="1345" 
d="M364 1102v-628q0 -23 -1.5 -59.5t-4 -76.5t-4.5 -75t-4 -54l577 893h245v-1102h-190v616q0 37 1.5 91.5t4.5 105.5t4 79l-575 -892h-246v1102h193zM620 1569q26 -46 63 -102.5t77.5 -109.5t73.5 -91v-25h-135q-37 29 -82 69t-90 84.5t-82 85t-59 69.5v20h234z" />
    <glyph glyph-name="uni045E" unicode="&#x45e;" horiz-adv-x="1061" 
d="M2 1102h217l234 -635q18 -49 33.5 -95.5t27 -90t18.5 -85.5h7q12 51 34 124t48 148l224 634h216l-476 -1258q-39 -105 -94.5 -180.5t-131.5 -116t-180 -40.5q-48 0 -84.5 5.5t-62.5 12.5v160q22 -5 53.5 -9t65.5 -4q63 0 108.5 24.5t78 69.5t54.5 105l50 130zM937 1560
q-9 -102 -52.5 -173.5t-129.5 -108.5t-224 -37q-142 0 -226 36t-123 107t-46 176h185q11 -111 59 -150t155 -39q94 0 149.5 41.5t66.5 147.5h186z" />
    <glyph glyph-name="uni045F" unicode="&#x45f;" horiz-adv-x="1299" 
d="M557 0h-386v1102h202v-939h552v939h201v-1102h-379v-383h-190v383z" />
    <glyph glyph-name="uni0460" unicode="&#x460;" horiz-adv-x="1894" 
d="M486 -8q-85 144 -161 317t-135.5 364t-96 390.5t-43.5 398.5h213q9 -187 40.5 -365t76.5 -340t95.5 -299t98.5 -241h10q13 63 37.5 144t54.5 163l186 512q-12 71 -22.5 143.5t-17 144t-8.5 138.5h214q6 -170 36.5 -344t77.5 -339.5t103.5 -311.5t113.5 -261h8
q79 161 137.5 353.5t91 418.5t34.5 484h214q-4 -281 -49 -541.5t-131 -494t-213 -434.5h-186q-49 79 -96 172.5t-89.5 193t-78 197t-61.5 184.5l-258 -747h-196z" />
    <glyph glyph-name="uni0461" unicode="&#x461;" horiz-adv-x="1653" 
d="M1596 1103q-9 -199 -52 -384t-122.5 -363t-198.5 -356h-185q-40 71 -81.5 152.5t-77.5 166.5t-62 163l-237 -482h-181q-65 103 -127.5 229t-113.5 268.5t-82.5 295.5t-36.5 310h200q11 -193 51 -366.5t94.5 -316.5t107.5 -245h7q12 35 30 71t37.5 73t36.5 75l146 292
q-25 98 -38.5 207.5t-16.5 209.5h201q6 -168 39 -330.5t83.5 -314t107.5 -287.5h8q71 116 127 261t91 314t45 357h200z" />
    <glyph glyph-name="uni0462" unicode="&#x462;" horiz-adv-x="1381" 
d="M321 0v1090h-306v165h306v207h207v-207h409v-165h-409v-235h184q208 0 332.5 -54t179.5 -149.5t55 -216.5q0 -202 -129.5 -318.5t-416.5 -116.5h-412zM528 172h187q181 0 267 64t86 199q0 93 -41.5 146t-126.5 75.5t-213 22.5h-159v-507z" />
    <glyph glyph-name="uni0463" unicode="&#x463;" horiz-adv-x="1310" 
d="M462 1319v-217h351v-162h-351v-287h294q230 0 341 -79t111 -234q0 -104 -46.5 -180t-146.5 -118t-260 -42h-492v940h-248v162h248v217h199zM744 497h-282v-343h283q119 0 191.5 41.5t72.5 137.5q0 91 -68 127.5t-197 36.5z" />
    <glyph glyph-name="uni0464" unicode="&#x464;" horiz-adv-x="1902" 
d="M1399 -20q-222 0 -369.5 86t-223.5 241.5t-85 365.5h-320v-673h-205v1462h205v-612h326q16 142 69 258t142 199.5t213 129t282 46.5q113 0 217 -26t190 -69l-76 -171q-75 36 -159 62.5t-179 26.5q-105 0 -189.5 -30t-146 -88.5t-99.5 -143t-51 -194.5h680v-176h-684
q6 -120 38.5 -215.5t93.5 -163.5t149.5 -103.5t203.5 -35.5q99 0 187 17.5t180 45.5v-176q-86 -32 -177 -47.5t-212 -15.5z" />
    <glyph glyph-name="uni0465" unicode="&#x465;" horiz-adv-x="1556" 
d="M1175 -20q-149 0 -262 54.5t-179.5 167t-78.5 283.5h-282v-485h-202v1102h202v-454h284q17 168 87.5 272.5t181 153t248.5 48.5q89 0 169.5 -19t137.5 -45l-57 -155q-55 24 -120 39.5t-127 15.5q-98 0 -165 -34.5t-103.5 -103.5t-46.5 -172h512v-163h-513q6 -114 43 -190
t106 -114t169 -38q88 0 159 19.5t135 46.5v-168q-60 -30 -130.5 -45.5t-167.5 -15.5z" />
    <glyph glyph-name="uni0466" unicode="&#x466;" horiz-adv-x="1408" 
d="M810 1464l593 -1464h-210l-260 666h-139v-666h-185v666h-141l-261 -666h-207l592 1464h218zM701 1290q-6 -22 -17.5 -57t-26 -74.5t-29 -78t-26.5 -67.5l-69 -177h336l-75 189q-11 29 -24 62.5t-25.5 69t-24 69.5t-19.5 64z" />
    <glyph glyph-name="uni0467" unicode="&#x467;" horiz-adv-x="1187" 
d="M711 1102l464 -1102h-200l-189 468h-105v-468h-179v468h-110l-185 -468h-202l463 1102h243zM593 971h-8q-10 -33 -23 -69t-26.5 -71.5t-26.5 -65.5l-57 -142h276l-56 139q-13 34 -28.5 72.5t-28.5 74.5t-22 62z" />
    <glyph glyph-name="uni0468" unicode="&#x468;" horiz-adv-x="1924" 
d="M1339 1464l592 -1464h-214l-259 671h-136v-671h-183v671h-139l-261 -671h-211l271 671h-398v-671h-205v1462h205v-614h470l249 616h219zM1229 1290q-7 -27 -18 -60t-23.5 -68.5t-26.5 -71t-28 -69.5l-70 -180h329l-71 188q-12 31 -25 65t-25.5 68.5t-23.5 67t-18 60.5z
" />
    <glyph glyph-name="uni0469" unicode="&#x469;" horiz-adv-x="1633" 
d="M1161 1102l463 -1102h-200l-193 482h-102v-482h-178v482h-102l-195 -482h-200l203 483h-297v-483h-189v1102h189v-457h366l192 457h243zM1043 971h-7q-9 -28 -23 -66.5t-28.5 -78t-27.5 -70.5l-51 -118h266l-52 128q-13 34 -28 71.5t-27.5 73t-21.5 60.5z" />
    <glyph glyph-name="uni046A" unicode="&#x46a;" horiz-adv-x="1522" 
d="M1361 1462v-129l-413 -493q123 -12 198.5 -58.5t122.5 -127.5t83 -197l141 -457h-208l-133 436q-29 92 -60.5 145t-84 76.5t-143.5 26.5v-684h-205v684q-92 -3 -144 -26.5t-82.5 -76.5t-59.5 -145l-133 -436h-212l140 457q27 86 58.5 153t76 115t109 77t156.5 38
l-405 493v129h1198zM1106 1283h-692l346 -420z" />
    <glyph glyph-name="uni046B" unicode="&#x46b;" horiz-adv-x="1293" 
d="M1157 1102v-102l-325 -362q99 -12 157 -51t94 -101t67 -147l126 -339h-190l-119 321q-25 67 -51.5 105.5t-67.5 56t-111 19.5v-502h-181v502q-74 -1 -115 -18t-66 -56t-51 -107l-121 -321h-189l126 339q32 83 68 145.5t95 101.5t156 53l-324 361v102h1022zM910 947h-528
l263 -297z" />
    <glyph glyph-name="uni046C" unicode="&#x46c;" horiz-adv-x="2050" 
d="M1896 1462v-129l-412 -495q123 -11 198.5 -57t122 -127t82.5 -197l143 -457h-204l-135 436q-30 96 -63 148t-85.5 73.5t-142.5 24.5v-682h-206v682q-91 -3 -144 -27t-84.5 -76.5t-59.5 -142.5l-133 -436h-211l147 462q24 78 51.5 131t64.5 84h-424v-677h-205v1462h205
v-608h689l-393 479v129h1199zM1642 1283h-691l346 -421z" />
    <glyph glyph-name="uni046D" unicode="&#x46d;" horiz-adv-x="1741" 
d="M1609 1102v-102l-326 -363q99 -13 157.5 -51t94 -100t66.5 -147l126 -339h-189l-119 321q-24 66 -51 104.5t-68 56t-111 18.5v-500h-181v501q-71 -2 -113.5 -19t-68 -55.5t-51.5 -105.5l-121 -321h-189l127 339q18 47 38.5 87t45.5 64h-316v-490h-189v1102h189v-451h541
l-314 349v102h1022zM1362 947h-529l264 -292z" />
    <glyph glyph-name="uni046E" unicode="&#x46e;" horiz-adv-x="1218" 
d="M882 1753q36 0 62.5 -5t42.5 -10v-119q-12 5 -33 8t-41 3q-49 0 -103 -44t-99 -112q177 -26 271.5 -122t94.5 -233q0 -148 -97 -236t-250 -114v-6q181 -25 281 -113.5t100 -234.5q0 -96 -35 -174.5t-106.5 -134.5t-181 -87t-260.5 -34q-110 -3 -167 -18t-76.5 -40.5
t-19.5 -59.5q0 -47 36 -75t134 -28q82 0 144.5 3t119 6.5t119.5 3.5q83 0 131.5 -11t74.5 -28v-179q-21 18 -74 33t-137 15q-59 0 -117 -2.5t-124 -5t-151 -2.5q-133 0 -212.5 35.5t-115 97t-35.5 138.5q0 85 44 146.5t144 97t270 40.5q199 5 292 70t93 200t-123 193.5
t-333 58.5h-192v168h185q151 0 246 31t140.5 87.5t45.5 134.5q0 105 -80 162.5t-214 57.5q-121 0 -218 -34.5t-184 -90.5l-96 139q77 53 167 91.5t203 52.5q-34 41 -75.5 85.5t-81 86t-70.5 71.5v25h144q49 -33 108.5 -87.5t111.5 -108.5q40 48 84.5 96t97 80t115.5 32z" />
    <glyph glyph-name="uni046F" unicode="&#x46f;" horiz-adv-x="1027" 
d="M795 1363q35 0 61.5 -4.5t41.5 -9.5v-120q-12 5 -32.5 7.5t-39.5 2.5q-46 0 -95 -37.5t-92 -96.5q119 -26 190.5 -95t71.5 -177q0 -99 -56 -158.5t-151 -85.5v-9q67 -17 121.5 -48.5t88 -84t33.5 -133.5q0 -92 -50 -165t-158.5 -116t-282.5 -46q-101 -2 -152.5 -15.5
t-69.5 -37t-18 -55.5q0 -49 37 -72t129 -23q72 0 132.5 3t113.5 5.5t102 2.5q70 0 109.5 -11t58.5 -30v-162q-24 20 -70 31t-93 11q-46 0 -106.5 -3t-130.5 -5.5t-146 -2.5q-118 0 -187 34.5t-98 91.5t-29 125q0 77 37.5 137t125 95.5t236.5 38.5q97 3 167 21t107.5 56.5
t37.5 101.5q0 60 -35 98.5t-105.5 56.5t-176.5 18h-139v156h119q145 0 228.5 36t83.5 124q0 75 -62.5 112t-182.5 37q-81 0 -160 -18t-160 -53l-67 153q63 25 124 43t130 27q-28 36 -62.5 75t-68 75.5t-61.5 62.5v25h139q49 -35 103.5 -85.5t111.5 -107.5q38 49 82.5 95.5
t97.5 77.5t117 31z" />
    <glyph glyph-name="uni0470" unicode="&#x470;" horiz-adv-x="1673" 
d="M1560 1462v-480q0 -117 -31 -215.5t-103.5 -170.5t-194 -112.5t-301.5 -40.5v-443h-194v443q-181 0 -302 41t-192 114t-101 170.5t-30 210.5v483h200v-479q0 -129 45 -210t139 -119t241 -38v846h194v-846q147 0 241.5 38.5t140 118.5t45.5 207v482h203z" />
    <glyph glyph-name="uni0471" unicode="&#x471;" horiz-adv-x="1587" 
d="M895 1554v-1407q119 10 203.5 57.5t129.5 139.5t45 234q0 140 -18.5 262t-51.5 262h195q34 -138 50.5 -261t16.5 -259q0 -208 -75 -337t-204 -191t-291 -71v-475h-192v475q-161 6 -284 64t-192 181.5t-69 324.5v549h196v-554q0 -145 44 -230.5t122.5 -125.5t182.5 -47
v1409h192z" />
    <glyph glyph-name="uni0472" unicode="&#x472;" horiz-adv-x="1605" 
d="M1479 733q0 -169 -43 -307.5t-127.5 -238t-211 -153.5t-295.5 -54q-172 0 -299.5 54t-211.5 154t-125.5 239t-41.5 308q0 225 74 394t225.5 262.5t381.5 93.5q222 0 372 -93t226 -261.5t76 -397.5zM802 155q149 0 248 60.5t151.5 174t60.5 269.5h-921q9 -156 61 -269
t151.5 -174t248.5 -61zM805 1308q-146 0 -244 -57t-152 -163t-67 -254h917q-19 223 -129 348.5t-325 125.5z" />
    <glyph glyph-name="uni0473" unicode="&#x473;" horiz-adv-x="1241" 
d="M1134 553q0 -182 -62.5 -310t-178.5 -195.5t-275 -67.5q-149 0 -264 67.5t-180 195.5t-65 310q0 272 138 420.5t377 148.5q152 0 267 -67t179 -194t64 -308zM622 145q97 0 161.5 39t99 115t41.5 185h-607q7 -109 42 -185t100.5 -115t162.5 -39zM620 955q-142 0 -215 -80
t-88 -234h607q-9 102 -44.5 172t-100 106t-159.5 36z" />
    <glyph glyph-name="uni0474" unicode="&#x474;" horiz-adv-x="1330" 
d="M1275 1305q-46 0 -76.5 -27.5t-55 -84.5t-53.5 -148l-339 -1045h-230l-521 1462h212l330 -945q22 -66 38.5 -120t29.5 -102.5t24 -98.5q7 38 16.5 77t21 80t24 86t28.5 93l171 537q45 143 86.5 232.5t99.5 131.5t155 42q43 0 78.5 -8.5t59.5 -16.5v-165q-23 8 -47.5 14
t-51.5 6z" />
    <glyph glyph-name="uni0475" unicode="&#x475;" horiz-adv-x="1091" 
d="M1027 1113q23 0 48.5 -4t47.5 -12v-157q-16 7 -35 10t-36 3q-30 0 -52.5 -17.5t-39.5 -51.5t-34 -85l-271 -799h-241l-414 1102h210l250 -707q27 -79 46.5 -142t25.5 -100h6q8 45 24 113t39 136l144 434q36 105 69.5 165.5t82.5 86t130 25.5z" />
    </font>
</defs>
</svg>
