<?xml version="1.0" standalone="no"?>
<!DOCTYPE svg PUBLIC "-//W3C//DTD SVG 1.1//EN" "http://www.w3.org/Graphics/SVG/1.1/DTD/svg11.dtd" >
<svg xmlns="http://www.w3.org/2000/svg" xmlns:xlink="http://www.w3.org/1999/xlink" version="1.1">
<metadata>
Created by FontForge 20170731 at Mon Sep 27 10:42:09 2021
 By Aleksey,,,
Copyright 2020 The Open Sans Project Authors (https://github.com/googlefonts/opensans)
</metadata>
<defs>
<font id="OpenSans-ExtraBold" horiz-adv-x="0" >
  <font-face 
    font-family="Open Sans ExtraBold"
    font-weight="800"
    font-stretch="normal"
    units-per-em="2048"
    panose-1="0 0 0 0 0 0 0 0 0 0"
    ascent="1638"
    descent="-410"
    x-height="1133"
    cap-height="1462"
    bbox="-1491 -651 2882 2302"
    underline-thickness="50"
    underline-position="-175"
    unicode-range="U+000D-FFFD"
  />
<missing-glyph horiz-adv-x="1229" 
 />
    <glyph glyph-name="f_f" unicode="ff" horiz-adv-x="1692" 
d="M827 840h-241v-840h-391v840h-150v192l158 96v19q0 147 39 239.5t124 136.5t222 44q88 0 159.5 -14t149.5 -40l-84 -253q-29 8 -64.5 14t-76.5 6q-45 0 -65.5 -27.5t-20.5 -89.5v-30h241v-293zM1673 840h-241v-840h-391v840h-150v192l158 96v19q0 147 39 239.5t124 136.5
t222 44q88 0 159.5 -14t149.5 -40l-84 -253q-29 8 -64.5 14t-76.5 6q-45 0 -65.5 -27.5t-20.5 -89.5v-30h241v-293z" />
    <glyph glyph-name="fi" unicode="fi" horiz-adv-x="1511" 
d="M827 840h-241v-840h-391v840h-150v192l158 96v19q0 147 39 239.5t124 136.5t222 44q88 0 159.5 -14t149.5 -40l-84 -253q-29 8 -64.5 14t-76.5 6q-45 0 -65.5 -27.5t-20.5 -89.5v-30h241v-293zM1374 1133v-1133h-391v1133h391zM1180 1589q84 0 146.5 -35t62.5 -139
q0 -101 -62.5 -136.5t-146.5 -35.5q-86 0 -146.5 35.5t-60.5 136.5q0 104 60.5 139t146.5 35z" />
    <glyph glyph-name="fl" unicode="fl" horiz-adv-x="1507" 
d="M827 840h-241v-840h-391v840h-150v192l158 96v19q0 147 39 239.5t124 136.5t222 44q88 0 159.5 -14t149.5 -40l-84 -253q-29 8 -64.5 14t-76.5 6q-45 0 -65.5 -27.5t-20.5 -89.5v-30h241v-293zM1372 0h-391v1556h391v-1556z" />
    <glyph glyph-name="f_f_i" unicode="ffi" horiz-adv-x="2357" 
d="M827 840h-241v-840h-391v840h-150v192l158 96v19q0 147 39 239.5t124 136.5t222 44q88 0 159.5 -14t149.5 -40l-84 -253q-29 8 -64.5 14t-76.5 6q-45 0 -65.5 -27.5t-20.5 -89.5v-30h241v-293zM1673 840h-241v-840h-391v840h-150v192l158 96v19q0 147 39 239.5t124 136.5
t222 44q88 0 159.5 -14t149.5 -40l-84 -253q-29 8 -64.5 14t-76.5 6q-45 0 -65.5 -27.5t-20.5 -89.5v-30h241v-293zM2220 1133v-1133h-391v1133h391zM2026 1589q84 0 146.5 -35t62.5 -139q0 -101 -62.5 -136.5t-146.5 -35.5q-86 0 -146.5 35.5t-60.5 136.5q0 104 60.5 139
t146.5 35z" />
    <glyph glyph-name="f_f_l" unicode="ffl" horiz-adv-x="2353" 
d="M827 840h-241v-840h-391v840h-150v192l158 96v19q0 147 39 239.5t124 136.5t222 44q88 0 159.5 -14t149.5 -40l-84 -253q-29 8 -64.5 14t-76.5 6q-45 0 -65.5 -27.5t-20.5 -89.5v-30h241v-293zM1673 840h-241v-840h-391v840h-150v192l158 96v19q0 147 39 239.5t124 136.5
t222 44q88 0 159.5 -14t149.5 -40l-84 -253q-29 8 -64.5 14t-76.5 6q-45 0 -65.5 -27.5t-20.5 -89.5v-30h241v-293zM2218 0h-391v1556h391v-1556z" />
    <glyph glyph-name=".notdef" horiz-adv-x="1229" 
 />
    <glyph glyph-name=".null" 
 />
    <glyph glyph-name="nonmarkingreturn" horiz-adv-x="682" 
 />
    <glyph glyph-name="NULL" 
 />
    <glyph glyph-name="NULL" 
 />
    <glyph glyph-name="CR" unicode="&#xd;" horiz-adv-x="532" 
 />
    <glyph glyph-name="space" unicode=" " horiz-adv-x="532" 
 />
    <glyph glyph-name="exclam" unicode="!" horiz-adv-x="594" 
d="M463 516h-330l-51 946h432zM86 166q0 106 62.5 149t148.5 43q85 0 146 -43t61 -149q0 -101 -61 -146t-146 -45q-86 0 -148.5 45t-62.5 146z" />
    <glyph glyph-name="quotedbl" unicode="&#x22;" horiz-adv-x="1073" 
d="M477 1462l-41 -528h-274l-41 528h356zM952 1462l-41 -528h-274l-41 528h356z" />
    <glyph glyph-name="numbersign" unicode="#" horiz-adv-x="1356" 
d="M1042 813l-30 -168h243v-254h-290l-74 -391h-268l73 391h-168l-71 -391h-267l72 391h-225v254h274l31 168h-238v260h287l72 389h268l-74 -389h166l72 389h268l-73 -389h229v-260h-277zM578 645h165l31 168h-166z" />
    <glyph glyph-name="dollar" unicode="$" horiz-adv-x="1182" 
d="M496 -119v164q-133 3 -228.5 25t-181.5 59v313q97 -43 206.5 -68.5t203.5 -33.5v252q-127 37 -227 88.5t-158 134t-58 213.5q0 124 55 206.5t155 127t233 53.5v141h188v-139q125 -6 227 -33t185 -61l-88 -274q-76 32 -159 52t-165 27v-247q143 -43 243.5 -91.5t154 -123
t53.5 -195.5q0 -166 -109 -281.5t-342 -140.5v-168h-188zM684 344q60 9 88.5 32.5t28.5 61.5q0 26 -10.5 44.5t-36 33.5t-70.5 29v-201zM496 936v190q-37 -3 -62 -13.5t-38 -28.5t-13 -42q0 -25 11 -44t36 -33.5t66 -28.5z" />
    <glyph glyph-name="percent" unicode="%" horiz-adv-x="1942" 
d="M410 1483q172 0 276.5 -120t104.5 -337t-98 -339t-283 -122q-168 0 -270.5 122t-102.5 339t96.5 337t276.5 120zM414 1239q-43 0 -59.5 -58.5t-16.5 -158.5q0 -98 16.5 -157.5t59.5 -59.5t59 58.5t16 158.5t-16 158.5t-59 58.5zM1520 1462l-811 -1462h-297l811 1462h297z
M1522 901q172 0 276.5 -120t104.5 -337q0 -216 -98 -338t-283 -122q-168 0 -270.5 122t-102.5 338q0 217 96.5 337t276.5 120zM1526 657q-43 0 -59.5 -58.5t-16.5 -158.5q0 -98 16.5 -157.5t59.5 -59.5t59.5 58.5t16.5 158.5q0 104 -16.5 160.5t-59.5 56.5z" />
    <glyph glyph-name="ampersand" unicode="&#x26;" horiz-adv-x="1636" 
d="M676 1481q138 0 238 -41.5t154 -119t54 -187.5q0 -127 -73.5 -219.5t-190.5 -163.5l199 -189q35 54 62 120.5t42 139.5h406q-32 -148 -98.5 -285.5t-141.5 -228.5l320 -307h-506l-99 102q-55 -34 -109.5 -62t-131.5 -44t-199 -16q-171 0 -289.5 57.5t-179.5 154
t-61 214.5q0 87 31.5 161.5t92 134.5t148.5 105q-41 47 -70.5 97t-45 106.5t-15.5 122.5q0 101 52.5 179.5t156 123.5t254.5 45zM557 592q-28 -21 -46.5 -46t-27 -53t-8.5 -59q0 -63 45.5 -103t118.5 -40q57 0 100 15t66 34zM670 1225q-42 0 -73.5 -24.5t-31.5 -80.5
q0 -44 26.5 -83.5t61.5 -71.5q57 32 87 77t30 91q0 49 -28.5 70.5t-71.5 21.5z" />
    <glyph glyph-name="quotesingle" unicode="'" horiz-adv-x="598" 
d="M477 1462l-41 -528h-274l-41 528h356z" />
    <glyph glyph-name="parenleft" unicode="(" horiz-adv-x="735" 
d="M74 582q0 167 27 331.5t88.5 315t164.5 274.5h326q-138 -192 -200 -434.5t-62 -484.5q0 -159 27 -320.5t84.5 -312t148.5 -275.5h-324q-103 120 -164.5 268t-88.5 310.5t-27 327.5z" />
    <glyph glyph-name="parenright" unicode=")" horiz-adv-x="735" 
d="M662 582q0 -165 -27 -327.5t-88.5 -310.5t-165.5 -268h-324q92 125 149 275.5t84 312t27 320.5q0 162 -27 324.5t-84.5 314.5t-150.5 280h326q104 -124 165.5 -274.5t88.5 -315t27 -331.5z" />
    <glyph glyph-name="asterisk" unicode="*" horiz-adv-x="1100" 
d="M702 1556l-38 -352l356 101l37 -295l-314 -21l207 -278l-260 -138l-143 283l-123 -281l-272 136l206 278l-313 25l45 291l348 -101l-39 352h303z" />
    <glyph glyph-name="plus" unicode="+" horiz-adv-x="1200" 
d="M733 856h373v-268h-373v-361h-268v361h-373v268h373v367h268v-367z" />
    <glyph glyph-name="comma" unicode="," horiz-adv-x="633" 
d="M498 299l14 -23q-18 -73 -46.5 -175.5t-62 -206t-67.5 -179.5h-279q20 94 39 198t35 204t25 182h342z" />
    <glyph glyph-name="hyphen" unicode="-" horiz-adv-x="651" 
d="M43 393v312h565v-312h-565z" />
    <glyph glyph-name="period" unicode="." horiz-adv-x="592" 
d="M86 166q0 106 62.5 149t150.5 43q83 0 144 -43t61 -149q0 -101 -61 -146t-144 -45q-88 0 -150.5 45t-62.5 146z" />
    <glyph glyph-name="slash" unicode="/" horiz-adv-x="905" 
d="M901 1483l-545 -1503h-346l545 1503h346z" />
    <glyph glyph-name="zero" unicode="0" horiz-adv-x="1200" 
d="M1128 729q0 -176 -28 -314.5t-89.5 -235.5t-162.5 -148t-248 -51q-183 0 -300 89.5t-172.5 257t-55.5 402.5q0 237 50.5 405.5t166.5 258.5t311 90q183 0 299.5 -89.5t172.5 -258t56 -406.5zM465 729q0 -143 10.5 -240t40 -145.5t84.5 -48.5t84 48.5t40 145t11 240.5
q0 145 -11 242t-40 146.5t-84 49.5t-84.5 -49.5t-40 -146.5t-10.5 -242z" />
    <glyph glyph-name="one" unicode="1" horiz-adv-x="1200" 
d="M942 0h-401v723v73.5t1.5 118.5t4.5 117q-26 -31 -48.5 -53t-43.5 -41l-166 -137l-205 252l502 409h356v-1462z" />
    <glyph glyph-name="two" unicode="2" horiz-adv-x="1200" 
d="M1122 0h-1061v260l357 361q111 116 172.5 186t86.5 119t25 102q0 65 -42 94t-99 29q-69 0 -139.5 -39.5t-159.5 -116.5l-217 254q66 59 140 112.5t175 87.5t246 34q149 0 258.5 -52t169.5 -142.5t60 -205.5q0 -127 -46.5 -226.5t-139.5 -199t-232 -225.5l-107 -96v-10
h553v-326z" />
    <glyph glyph-name="three" unicode="3" horiz-adv-x="1200" 
d="M1073 1145q0 -104 -44.5 -179.5t-118 -123.5t-160.5 -72v-6q175 -22 270.5 -106.5t95.5 -239.5q0 -120 -64 -219.5t-199 -159t-347 -59.5q-142 0 -242 21t-194 58v328q95 -49 195.5 -72.5t183.5 -23.5q144 0 196.5 41t52.5 110q0 50 -25 85t-92.5 54t-193.5 19h-90v297
h92q112 0 177.5 20t94.5 54.5t29 79.5q0 58 -45 86t-119 28q-66 0 -124 -18t-101 -40t-65 -36l-164 264q91 62 208.5 105t307.5 43q226 0 355.5 -90t129.5 -248z" />
    <glyph glyph-name="four" unicode="4" horiz-adv-x="1200" 
d="M1169 283h-161v-283h-390v283h-583v290l608 889h365v-884h161v-295zM618 578v170q0 23 1 58t2.5 70.5t3 60t2.5 26.5h-11q-19 -45 -35 -74.5t-42 -69.5l-162 -241h241z" />
    <glyph glyph-name="five" unicode="5" horiz-adv-x="1200" 
d="M664 958q122 0 222 -55t160 -160t60 -256q0 -163 -65.5 -276.5t-197 -172t-331.5 -58.5q-127 0 -231.5 19.5t-186.5 59.5v324q77 -35 185.5 -63.5t199.5 -28.5q73 0 124 21t77.5 62t26.5 101q0 83 -60 130.5t-182 47.5q-55 0 -108 -11t-93 -24l-145 72l55 772h834v-329
h-498l-18 -193q32 6 65.5 12t106.5 6z" />
    <glyph glyph-name="six" unicode="6" horiz-adv-x="1200" 
d="M70 618q0 126 18 250.5t65 235t133 196t221 134.5t329 49q43 0 105 -5t103 -12v-309q-41 8 -92 13.5t-125 5.5q-148 0 -233.5 -44.5t-123.5 -127.5t-44 -199h12q26 48 63.5 86.5t92.5 61t133 22.5q128 0 220 -55.5t141 -161.5t49 -258q0 -164 -62.5 -280.5t-178 -178
t-275.5 -61.5q-118 0 -218.5 38t-175 116.5t-116 199t-41.5 284.5zM612 293q63 0 102.5 48t39.5 151q0 83 -32.5 130.5t-105.5 47.5q-49 0 -83 -23.5t-52 -59.5t-18 -75t8.5 -78t27 -70.5t46.5 -51t67 -19.5z" />
    <glyph glyph-name="seven" unicode="7" horiz-adv-x="1200" 
d="M209 0l502 1135h-633v327h1055v-233l-515 -1229h-409z" />
    <glyph glyph-name="eight" unicode="8" horiz-adv-x="1200" 
d="M604 1483q145 0 254.5 -39t171.5 -118.5t62 -199.5q0 -88 -32.5 -154.5t-89 -116t-130.5 -85.5q69 -39 137 -91t113 -122.5t45 -167.5q0 -117 -57 -209.5t-175 -146t-303 -53.5t-303 51t-173.5 142.5t-55.5 211.5q0 102 34.5 172t94.5 119t137 88q-61 41 -112 93t-81 119
t-30 152q0 118 63 197t174.5 118.5t255.5 39.5zM430 401q0 -61 44 -99t122 -38q91 0 133.5 34.5t42.5 94.5q0 45 -26.5 81.5t-61.5 63.5t-61 42l-27 16q-45 -23 -82.5 -51.5t-60.5 -64t-23 -79.5zM602 1198q-49 0 -85 -28.5t-36 -77.5q0 -32 15.5 -59.5t42 -50.5t59.5 -42
q29 17 57 37t47 48t19 67q0 49 -35.5 77.5t-83.5 28.5z" />
    <glyph glyph-name="nine" unicode="9" horiz-adv-x="1200" 
d="M1130 821q0 -157 -27.5 -288t-85 -233.5t-147.5 -174t-215 -108.5t-288 -37q-45 0 -104.5 2t-100.5 8v313q43 -7 86 -11.5t100 -4.5q165 0 255.5 47t127.5 130.5t43 192.5h-12q-26 -49 -63 -87.5t-93 -60.5t-139 -22q-123 0 -213.5 56t-140.5 162.5t-50 259.5
q0 163 62.5 278.5t179 177.5t277.5 62q114 0 213.5 -39t174.5 -119.5t117.5 -205.5t42.5 -298zM592 1167q-69 0 -107.5 -47t-38.5 -151q0 -82 36 -130t106 -48q44 0 77.5 23.5t52.5 60t19 75.5t-8.5 77.5t-26 70t-45 50.5t-65.5 19z" />
    <glyph glyph-name="colon" unicode=":" horiz-adv-x="592" 
d="M86 166q0 106 62.5 149t150.5 43q83 0 144 -43t61 -149q0 -101 -61 -146t-144 -45q-88 0 -150.5 45t-62.5 146zM86 956q0 105 62.5 148t150.5 43q83 0 144 -43t61 -148q0 -103 -61 -147.5t-144 -44.5q-88 0 -150.5 44.5t-62.5 147.5z" />
    <glyph glyph-name="semicolon" unicode=";" horiz-adv-x="608" 
d="M498 299l14 -23q-18 -73 -46.5 -175.5t-62 -206t-67.5 -179.5h-279q20 94 39 198t35 204t25 182h342zM92 956q0 105 61.5 148t149.5 43q83 0 145 -43t62 -148q0 -103 -62 -147.5t-145 -44.5q-88 0 -149.5 44.5t-61.5 147.5z" />
    <glyph glyph-name="less" unicode="&#x3c;" horiz-adv-x="1200" 
d="M1104 178l-1012 449v172l1012 506v-297l-621 -283l621 -252v-295z" />
    <glyph glyph-name="equal" unicode="=" horiz-adv-x="1200" 
d="M92 815v268h1016v-268h-1016zM92 358v271h1016v-271h-1016z" />
    <glyph glyph-name="greater" unicode="&#x3e;" horiz-adv-x="1200" 
d="M92 473l621 252l-621 283v297l1012 -506v-172l-1012 -449v295z" />
    <glyph glyph-name="question" unicode="?" horiz-adv-x="1034" 
d="M295 516v86q0 62 15.5 112t55.5 95t111 90q68 43 100 74.5t42 58t10 53.5q0 42 -38 66.5t-99 24.5q-76 0 -164.5 -27t-188.5 -80l-139 272q113 65 241 103.5t279 38.5q227 0 352 -100.5t125 -264.5q0 -78 -24 -143t-76 -122t-137 -112q-60 -38 -94.5 -65t-49 -52
t-14.5 -57v-51h-307zM252 166q0 106 61.5 149t149.5 43q84 0 145.5 -43t61.5 -149q0 -101 -61.5 -146t-145.5 -45q-88 0 -149.5 45t-61.5 146z" />
    <glyph glyph-name="at" unicode="@" horiz-adv-x="1837" 
d="M1755 756q0 -96 -24.5 -189t-72.5 -168.5t-119 -120.5t-163 -45q-73 0 -139 30.5t-104 88.5h-15q-46 -50 -110.5 -84.5t-149.5 -34.5q-190 0 -284.5 111.5t-94.5 294.5q0 135 58.5 242.5t172.5 170t281 62.5q100 0 196.5 -19t160.5 -42l-21 -422q0 -11 -1 -39t-1 -55
q0 -48 14 -67t35 -19q37 0 63 42t40 112t14 153q0 153 -58 265t-173 173t-287 61q-152 0 -268 -48t-194 -135.5t-117.5 -206.5t-39.5 -261q0 -161 61 -281t182 -185.5t302 -65.5q114 0 252.5 26t261.5 70v-229q-106 -45 -234.5 -70t-265.5 -25q-262 0 -448 92.5t-284.5 264
t-98.5 407.5q0 185 62 343t178.5 277t280 185t366.5 66q237 0 413.5 -88t274.5 -250.5t98 -386.5zM760 641q0 -100 36.5 -145t96.5 -45q81 0 115.5 65.5t44.5 216.5l10 156q-20 3 -34.5 4.5t-33.5 1.5q-82 0 -134 -35t-76.5 -92.5t-24.5 -126.5z" />
    <glyph glyph-name="A" unicode="A" horiz-adv-x="1487" 
d="M1055 0l-72 274h-475l-74 -274h-434l477 1468h527l483 -1468h-432zM901 598l-63 240q-10 39 -29 111.5t-37.5 150t-28.5 127.5q-9 -50 -25.5 -123.5t-34 -145.5t-30.5 -120l-63 -240h311z" />
    <glyph glyph-name="B" unicode="B" horiz-adv-x="1380" 
d="M158 1462h510q317 0 452 -94t135 -270q0 -96 -34.5 -163t-87 -106t-107.5 -53v-10q60 -15 119.5 -49.5t99 -103t39.5 -185.5q0 -133 -67.5 -229t-192.5 -147.5t-297 -51.5h-569v1462zM553 901h119q98 0 138 40.5t40 98.5q0 60 -45.5 91.5t-140.5 31.5h-111v-262zM553 612
v-307h139q103 0 144 44.5t41 111.5q0 39 -17.5 73.5t-59.5 56t-116 21.5h-131z" />
    <glyph glyph-name="C" unicode="C" horiz-adv-x="1329" 
d="M809 1159q-70 0 -125 -29.5t-94 -85.5t-59.5 -136.5t-20.5 -182.5q0 -138 35 -232t106.5 -142t179.5 -48q98 0 188.5 27t182.5 65v-334q-97 -43 -198.5 -62t-215.5 -19q-238 0 -389.5 94.5t-223 262.5t-71.5 390q0 166 46.5 304t136.5 239.5t222.5 157t303.5 55.5
q106 0 223.5 -24.5t229.5 -78.5l-121 -311q-80 38 -162 64t-174 26z" />
    <glyph glyph-name="D" unicode="D" horiz-adv-x="1503" 
d="M1399 762q0 -255 -95 -424t-267.5 -253.5t-405.5 -84.5h-473v1462h506q236 0 400 -81t249.5 -237t85.5 -382zM989 748q0 133 -35.5 220.5t-106.5 131t-179 43.5h-115v-819h88q180 0 264 104.5t84 319.5z" />
    <glyph glyph-name="E" unicode="E" horiz-adv-x="1124" 
d="M1026 0h-868v1462h868v-317h-473v-230h438v-317h-438v-276h473v-322z" />
    <glyph glyph-name="F" unicode="F" horiz-adv-x="1104" 
d="M547 0h-389v1462h864v-317h-475v-279h438v-317h-438v-549z" />
    <glyph glyph-name="G" unicode="G" horiz-adv-x="1516" 
d="M745 856h631v-788q-113 -39 -259 -63.5t-306 -24.5q-211 0 -370 82t-248 249.5t-89 423.5q0 230 88 397.5t259.5 259t420.5 91.5q137 0 260 -26t214 -66l-125 -310q-79 39 -164 58.5t-183 19.5q-131 0 -210.5 -59t-115.5 -157.5t-36 -217.5q0 -136 38.5 -229.5t113 -142
t180.5 -48.5q35 0 85.5 5t76.5 12v229h-261v305z" />
    <glyph glyph-name="H" unicode="H" horiz-adv-x="1569" 
d="M1411 0h-397v596h-459v-596h-397v1462h397v-542h459v542h397v-1462z" />
    <glyph glyph-name="I" unicode="I" horiz-adv-x="713" 
d="M158 0v1462h397v-1462h-397z" />
    <glyph glyph-name="J" unicode="J" horiz-adv-x="721" 
d="M43 -459q-67 0 -117.5 6.5t-87.5 14.5v307q32 -6 68 -13.5t78 -7.5q71 0 110.5 29t55.5 87t16 145v1353h397v-1319q0 -220 -66 -352t-183 -191t-271 -59z" />
    <glyph glyph-name="K" unicode="K" horiz-adv-x="1407" 
d="M1407 0h-446l-289 559l-117 -70v-489h-397v1462h397v-635q25 48 57.5 96t63.5 91l307 448h432l-461 -655z" />
    <glyph glyph-name="L" unicode="L" horiz-adv-x="1192" 
d="M158 0v1462h395v-1143h563v-319h-958z" />
    <glyph glyph-name="M" unicode="M" horiz-adv-x="1980" 
d="M795 0l-299 1053h-9q4 -41 8.5 -111t8.5 -151t4 -156v-635h-350v1462h526l305 -1038h8l299 1038h527v-1462h-363v641q0 69 2.5 148.5t6 150t6.5 111.5h-9l-295 -1051h-376z" />
    <glyph glyph-name="N" unicode="N" horiz-adv-x="1708" 
d="M1550 0h-518l-534 1030h-9q5 -47 9 -113t7 -134.5t3 -123.5v-659h-350v1462h516l532 -1016h6q-3 48 -6 111.5t-5.5 128.5t-2.5 115v661h352v-1462z" />
    <glyph glyph-name="O" unicode="O" horiz-adv-x="1632" 
d="M1526 733q0 -169 -40.5 -307.5t-126.5 -238.5t-221 -153.5t-323 -53.5q-184 0 -318.5 53.5t-221.5 153t-129 238.5t-42 310q0 228 75.5 396.5t233.5 261t404 92.5q250 0 406.5 -93t229.5 -262t73 -397zM520 733q0 -132 30 -227t95 -146t170 -51q109 0 173.5 51t93 146
t28.5 227q0 198 -66 313t-227 115q-107 0 -172.5 -52t-95 -148t-29.5 -228z" />
    <glyph glyph-name="P" unicode="P" horiz-adv-x="1294" 
d="M664 1462q278 0 416.5 -121t138.5 -344q0 -100 -28.5 -192t-93 -164t-171 -114t-262.5 -42h-111v-485h-395v1462h506zM655 1143h-102v-336h78q51 0 95 17.5t70.5 57t26.5 105.5q0 69 -41 112.5t-127 43.5z" />
    <glyph glyph-name="Q" unicode="Q" horiz-adv-x="1632" 
d="M1526 733q0 -152 -32.5 -281.5t-102 -228t-181.5 -160.5l357 -411h-492l-246 328h-6.5h-7.5q-184 0 -318.5 53.5t-221.5 153t-129 238.5t-42 310q0 228 75.5 396.5t233.5 261t404 92.5q250 0 406.5 -93t229.5 -262t73 -397zM520 733q0 -132 30 -227t95 -146t170 -51
q109 0 173.5 51t93 146t28.5 227q0 198 -66 313t-227 115q-107 0 -172.5 -52t-95 -148t-29.5 -228z" />
    <glyph glyph-name="R" unicode="R" horiz-adv-x="1386" 
d="M637 1462q199 0 331 -48.5t198.5 -144.5t66.5 -239q0 -89 -30 -162t-85.5 -130.5t-132.5 -100.5l426 -637h-448l-310 532h-100v-532h-395v1462h479zM631 1163h-78v-334h74q91 0 149 40t58 143q0 71 -48 111t-155 40z" />
    <glyph glyph-name="S" unicode="S" horiz-adv-x="1182" 
d="M1114 444q0 -119 -60 -225.5t-186.5 -172.5t-326.5 -66q-100 0 -175.5 9t-140.5 29.5t-135 53.5v352q119 -60 240 -91.5t219 -31.5q59 0 96.5 14t55.5 38.5t18 56.5q0 38 -26.5 64.5t-84.5 55.5t-153 72q-81 38 -146.5 78t-112 91.5t-71.5 120.5t-25 163
q0 141 69.5 236.5t194 143.5t287.5 48q143 0 257.5 -32t205.5 -73l-121 -305q-94 43 -185 68.5t-169 25.5q-51 0 -83.5 -12.5t-48 -33.5t-15.5 -48q0 -34 26.5 -61t89 -58.5t170.5 -81.5q107 -48 182 -103.5t114.5 -133t39.5 -191.5z" />
    <glyph glyph-name="T" unicode="T" horiz-adv-x="1210" 
d="M803 0h-395v1139h-357v323h1108v-323h-356v-1139z" />
    <glyph glyph-name="U" unicode="U" horiz-adv-x="1550" 
d="M1401 1462v-880q0 -184 -70 -319.5t-210 -209t-351 -73.5q-302 0 -461 155t-159 438v889h397v-858q0 -155 58 -225t171 -70q81 0 132 30.5t74.5 96.5t23.5 170v856h395z" />
    <glyph glyph-name="V" unicode="V" horiz-adv-x="1421" 
d="M1421 1462l-479 -1462h-465l-477 1462h444l199 -741q11 -42 25.5 -107.5t27 -130.5t15.5 -106q4 41 15 105t24.5 128.5t25.5 106.5l203 745h442z" />
    <glyph glyph-name="W" unicode="W" horiz-adv-x="2128" 
d="M2097 1462l-360 -1462h-467l-140 637q-4 18 -12.5 61t-19 98t-19 108.5t-12.5 90.5q-4 -37 -13 -90.5t-19.5 -108.5t-20 -98t-13.5 -61l-141 -637h-467l-362 1462h381l159 -733q6 -27 16.5 -76.5t22 -108t21.5 -112.5t14 -90q8 62 21.5 141t30 160.5t31.5 151.5t26 114
l129 553h366l125 -553q10 -43 25.5 -113.5t32 -152.5t30.5 -161.5t21 -139.5q6 50 20 126.5t28.5 149t22.5 109.5l162 735h381z" />
    <glyph glyph-name="X" unicode="X" horiz-adv-x="1481" 
d="M1475 0h-457l-285 457l-282 -457h-447l485 748l-456 714h438l264 -452l254 452h451l-463 -745z" />
    <glyph glyph-name="Y" unicode="Y" horiz-adv-x="1360" 
d="M680 920l252 542h428l-481 -891v-571h-398v559l-481 903h430z" />
    <glyph glyph-name="Z" unicode="Z" horiz-adv-x="1251" 
d="M1200 0h-1139v244l633 899h-618v319h1108v-243l-633 -900h649v-319z" />
    <glyph glyph-name="bracketleft" unicode="[" horiz-adv-x="664" 
d="M616 -344h-499v1847h499v-254h-182v-1339h182v-254z" />
    <glyph glyph-name="backslash" unicode="\" horiz-adv-x="905" 
d="M352 1483l545 -1503h-346l-545 1503h346z" />
    <glyph glyph-name="bracketright" unicode="]" horiz-adv-x="664" 
d="M47 -90h182v1339h-182v254h500v-1847h-500v254z" />
    <glyph glyph-name="asciicircum" unicode="^" horiz-adv-x="1075" 
d="M-16 502l440 966h170l508 -966h-295l-289 577l-248 -577h-286z" />
    <glyph glyph-name="underscore" unicode="_" horiz-adv-x="1024" 
d="M1028 -379h-1032v246h1032v-246z" />
    <glyph glyph-name="grave" unicode="`" horiz-adv-x="856" 
d="M512 1569q35 -46 83.5 -101t97 -107.5t81.5 -90.5v-29h-260q-42 26 -100 66t-121 84.5t-118.5 86t-92.5 70.5v21h430z" />
    <glyph glyph-name="a" unicode="a" horiz-adv-x="1276" 
d="M688 1153q215 0 336 -106.5t121 -303.5v-743h-271l-75 150h-8q-48 -60 -98.5 -97.5t-115.5 -55t-159 -17.5q-98 0 -176 40t-123 121t-45 205q0 182 126 270t365 99l189 6v16q0 76 -37.5 108t-100.5 32q-67 0 -149.5 -23.5t-165.5 -60.5l-113 258q98 50 222 76t278 26z
M756 506l-90 -4q-108 -4 -151.5 -37.5t-43.5 -95.5q0 -58 31 -85.5t82 -27.5q71 0 121.5 45t50.5 117v88z" />
    <glyph glyph-name="b" unicode="b" horiz-adv-x="1317" 
d="M526 1556v-352q0 -60 -4 -114.5t-10 -102.5h14q44 69 115 117.5t186 48.5q177 0 289.5 -150t112.5 -434q0 -193 -52 -324.5t-145.5 -198t-216.5 -66.5q-120 0 -182.5 41.5t-106.5 89.5h-24l-62 -111h-305v1556h391zM684 846q-54 0 -89 -25t-52 -77.5t-17 -133.5v-55
q0 -132 35.5 -196t126.5 -64q69 0 106 71t37 207t-36 204.5t-111 68.5z" />
    <glyph glyph-name="c" unicode="c" horiz-adv-x="1104" 
d="M651 -20q-172 0 -299 61.5t-196.5 190t-69.5 329.5q0 206 77.5 337t212.5 193t306 62q104 0 197.5 -23t173.5 -63l-115 -289q-70 31 -130.5 49.5t-125.5 18.5q-59 0 -104 -31t-70 -93.5t-25 -158.5q0 -98 25.5 -158t71 -87t104.5 -27q85 0 169.5 26.5t160.5 73.5v-311
q-70 -46 -158 -73t-205 -27z" />
    <glyph glyph-name="d" unicode="d" horiz-adv-x="1317" 
d="M487 -20q-175 0 -288 149t-113 436q0 290 116 439t300 149q76 0 131 -22t95.5 -59.5t70.5 -84.5h8q-7 43 -13 118.5t-6 147.5v303h394v-1556h-295l-84 143h-15q-27 -45 -67.5 -82t-98 -59t-135.5 -22zM647 289q94 0 132.5 59.5t41.5 181.5v31q0 134 -37.5 205.5
t-140.5 71.5q-70 0 -116 -68t-46 -211q0 -141 46.5 -205.5t119.5 -64.5z" />
    <glyph glyph-name="e" unicode="e" horiz-adv-x="1266" 
d="M645 1153q165 0 285 -57.5t185 -172.5t65 -288v-174h-699q5 -89 66.5 -146t181.5 -57q106 0 194.5 21t182.5 65v-281q-82 -43 -179 -63t-245 -20q-171 0 -306 61t-212.5 189t-77.5 329q0 204 70 335.5t196 195t293 63.5zM659 887q-69 0 -115.5 -43.5t-54.5 -136.5h336
q-1 50 -20 91t-55.5 65t-90.5 24z" />
    <glyph glyph-name="f" unicode="f" horiz-adv-x="846" 
d="M827 840h-241v-840h-391v840h-150v192l158 96v19q0 147 39 239.5t124 136.5t222 44q88 0 159.5 -14t149.5 -40l-84 -253q-29 8 -64.5 14t-76.5 6q-45 0 -65.5 -27.5t-20.5 -89.5v-30h241v-293z" />
    <glyph glyph-name="g" unicode="g" horiz-adv-x="1241" 
d="M522 -492q-241 0 -371.5 80.5t-130.5 231.5q0 101 63 167t189 95q-52 22 -90.5 71t-38.5 97q0 53 29 93.5t121 96.5q-88 39 -138.5 122t-50.5 202q0 123 56.5 210t165 133t264.5 46q21 0 64 -3.5t87 -8t68 -8.5h395v-189l-155 -57q16 -29 24 -63t8 -72
q0 -183 -128.5 -284t-383.5 -101q-63 0 -100 8q-7 -13 -10.5 -25.5t-3.5 -23.5q0 -23 27.5 -36.5t67 -18.5t75.5 -5h188q191 0 286 -80t95 -241q0 -207 -176.5 -322t-495.5 -115zM541 -248q71 0 143 12.5t121 40.5t49 74q0 35 -29 52.5t-75 23.5t-97 6h-152
q-42 0 -76.5 -13.5t-54.5 -36.5t-20 -52q0 -48 52 -77.5t139 -29.5zM594 588q56 0 86.5 43t30.5 129q0 88 -29 132t-88 44q-61 0 -91 -43.5t-30 -130.5t30 -130.5t91 -43.5z" />
    <glyph glyph-name="h" unicode="h" horiz-adv-x="1372" 
d="M526 1556v-221q0 -126 -5.5 -211.5t-10.5 -130.5h18q37 59 84 94t104 50.5t124 15.5q112 0 202.5 -43t144.5 -134.5t54 -238.5v-737h-393v618q0 113 -33 170.5t-102 57.5q-71 0 -112 -40.5t-58 -118t-17 -189.5v-498h-391v1556h391z" />
    <glyph glyph-name="i" unicode="i" horiz-adv-x="666" 
d="M528 1133v-1133h-391v1133h391zM334 1589q84 0 146.5 -35t62.5 -139q0 -101 -62.5 -136.5t-146.5 -35.5q-86 0 -146.5 35.5t-60.5 136.5q0 104 60.5 139t146.5 35z" />
    <glyph glyph-name="j" unicode="j" horiz-adv-x="664" 
d="M106 -492q-47 0 -108.5 7.5t-101.5 17.5v305q32 -9 59 -13.5t61 -4.5q48 0 83.5 33.5t35.5 136.5v1143h391v-1225q0 -102 -40 -193.5t-132 -149t-248 -57.5zM125 1415q0 104 60.5 139t146.5 35q84 0 146.5 -35t62.5 -139q0 -101 -62.5 -136.5t-146.5 -35.5
q-86 0 -146.5 35.5t-60.5 136.5z" />
    <glyph glyph-name="k" unicode="k" horiz-adv-x="1350" 
d="M528 1556v-612q0 -69 -5.5 -153.5t-16.5 -153.5h8q23 35 58 88t63 88l254 320h436l-393 -482l418 -651h-447l-248 406l-127 -97v-309h-393v1556h393z" />
    <glyph glyph-name="l" unicode="l" horiz-adv-x="662" 
d="M526 0h-391v1556h391v-1556z" />
    <glyph glyph-name="m" unicode="m" horiz-adv-x="2048" 
d="M1518 1153q194 0 296.5 -99t102.5 -317v-737h-391v616q0 129 -34.5 179.5t-102.5 50.5q-95 0 -131.5 -83t-36.5 -235v-528h-392v616q0 82 -14.5 132.5t-43.5 74t-73 23.5q-67 0 -104.5 -40.5t-52.5 -118.5t-15 -191v-496h-391v1133h295l57 -140h11q30 46 77.5 82t113 57
t149.5 21q125 0 206 -42t132 -116h12q54 76 139 117t191 41z" />
    <glyph glyph-name="n" unicode="n" horiz-adv-x="1372" 
d="M844 1153q175 0 286 -99t111 -317v-737h-391v618q0 113 -32.5 170.5t-104.5 57.5q-111 0 -149 -90.5t-38 -259.5v-496h-391v1133h295l53 -150h15q36 54 86 92t115 58t145 20z" />
    <glyph glyph-name="o" unicode="o" horiz-adv-x="1305" 
d="M1217 569q0 -142 -39 -252t-113 -185t-179 -113.5t-237 -38.5q-123 0 -225.5 38.5t-178.5 113.5t-117.5 185t-41.5 252q0 188 68.5 318t196 198t304.5 68q163 0 290 -68t199.5 -198t72.5 -318zM483 569q0 -97 17 -163.5t54.5 -101t98.5 -34.5t97 34.5t52.5 101
t16.5 163.5t-16.5 162t-53 98t-98.5 33q-89 0 -128.5 -74t-39.5 -219z" />
    <glyph glyph-name="p" unicode="p" horiz-adv-x="1317" 
d="M827 1153q188 0 295 -150.5t107 -433.5q0 -193 -54 -324.5t-147.5 -198t-212.5 -66.5q-80 0 -135.5 20t-92 50t-61.5 61h-12q5 -39 8.5 -84t3.5 -105v-414h-391v1625h318l55 -144h18q28 44 68 81.5t97.5 60t135.5 22.5zM680 846q-57 0 -90 -27t-47.5 -81.5t-16.5 -135.5
v-31q0 -90 14 -151.5t48 -93t94 -31.5q49 0 82 28t50 89t17 161q0 149 -38.5 211t-112.5 62z" />
    <glyph glyph-name="q" unicode="q" horiz-adv-x="1317" 
d="M791 -492v469q0 42 3 83.5t9 82.5h-12q-40 -67 -111.5 -115t-187.5 -48q-181 0 -293.5 149t-112.5 436q0 192 52 323t145 198t215 67q118 0 191.5 -46t117.5 -114h8l29 140h338v-1625h-391zM651 283q64 0 101 26.5t53 80t16 134.5v47q0 133 -36 206t-140 73
q-81 0 -121.5 -74t-40.5 -217q0 -148 41.5 -212t126.5 -64z" />
    <glyph glyph-name="r" unicode="r" horiz-adv-x="961" 
d="M819 1153q32 0 67 -4.5t52 -7.5l-35 -369q-19 5 -49 8.5t-84 3.5q-37 0 -79 -7t-79.5 -29.5t-61.5 -68t-24 -122.5v-557h-391v1133h291l61 -181h19q31 56 79.5 101.5t109 72.5t124.5 27z" />
    <glyph glyph-name="s" unicode="s" horiz-adv-x="1059" 
d="M977 348q0 -108 -48 -191t-153.5 -130t-277.5 -47q-121 0 -216.5 13t-193.5 50v313q107 -49 218 -70.5t175 -21.5q66 0 96.5 14.5t30.5 43.5q0 25 -20.5 42.5t-73 40.5t-147.5 62q-94 39 -156.5 85t-93.5 110t-31 157q0 166 128 250t339 84q112 0 211 -24.5t205 -71.5
l-107 -252q-84 38 -170 61t-137 23q-46 0 -71 -12t-25 -35q0 -21 17.5 -37t66.5 -37t143 -59q99 -40 163.5 -85.5t96 -110.5t31.5 -165z" />
    <glyph glyph-name="t" unicode="t" horiz-adv-x="942" 
d="M690 289q53 0 97 11t92 28v-285q-64 -28 -135.5 -45.5t-182.5 -17.5q-110 0 -194 34.5t-130.5 120t-46.5 238.5v467h-137v159l174 123l101 238h256v-227h278v-293h-278v-441q0 -55 28 -82.5t78 -27.5z" />
    <glyph glyph-name="u" unicode="u" horiz-adv-x="1372" 
d="M1237 1133v-1133h-295l-49 141h-23q-35 -57 -88.5 -92.5t-118.5 -52t-135 -16.5q-111 0 -200.5 43t-142 135t-52.5 237v738h391v-619q0 -110 31.5 -167.5t103.5 -57.5q74 0 114.5 40t56.5 118t16 190v496h391z" />
    <glyph glyph-name="v" unicode="v" horiz-adv-x="1251" 
d="M432 0l-432 1133h408l192 -670q3 -9 10.5 -46t7.5 -69h7q0 34 7 65t11 48l201 672h407l-432 -1133h-387z" />
    <glyph glyph-name="w" unicode="w" horiz-adv-x="1864" 
d="M1110 0l-119 496q-9 38 -18 86.5t-17.5 97.5t-14.5 90t-9 64h-6q-3 -23 -10 -64.5t-16 -91.5t-19.5 -101.5t-20.5 -95.5l-115 -481h-411l-309 1133h385l92 -435q10 -48 20.5 -114.5t19 -135t11.5 -122.5h6q2 41 9.5 94.5t17 106.5t17.5 93.5t11 55.5l105 457h432l96 -463
q9 -39 20.5 -99.5t22 -126t15.5 -118.5h6q4 55 12 125t18.5 136.5t20.5 110.5l100 435h377l-311 -1133h-418z" />
    <glyph glyph-name="x" unicode="x" horiz-adv-x="1290" 
d="M375 578l-346 555h444l172 -318l176 318h445l-355 -555l369 -578h-444l-191 344l-190 -344h-445z" />
    <glyph glyph-name="y" unicode="y" horiz-adv-x="1249" 
d="M-2 1133h412l192 -650q4 -14 8 -34.5t7 -43.5t4 -45h8q5 41 11.5 71.5t12.5 49.5l197 652h399l-448 -1205q-52 -138 -120.5 -231.5t-169 -141t-249.5 -47.5q-54 0 -92.5 5.5t-67.5 11.5v307q22 -4 54 -8t67 -4q65 0 105.5 26t66.5 68.5t45 91.5l4 10z" />
    <glyph glyph-name="z" unicode="z" horiz-adv-x="1038" 
d="M987 0h-938v223l469 611h-442v299h889v-242l-449 -592h471v-299z" />
    <glyph glyph-name="braceleft" unicode="{" horiz-adv-x="887" 
d="M821 -344q-210 0 -321 36t-152 112t-41 196v248q0 62 -36 99t-92 54t-118 17v301q64 0 120 16.5t91 54t35 99.5v254q0 117 40 192t150.5 111.5t323.5 36.5v-279q-41 -1 -85 -6t-74.5 -27t-30.5 -73v-271q0 -124 -63 -180t-177 -72v-12q117 -18 178.5 -73.5t61.5 -172.5
v-276q0 -50 31 -72t75 -27.5t84 -7.5v-278z" />
    <glyph glyph-name="bar" unicode="|" horiz-adv-x="1042" 
d="M387 1556h268v-2002h-268v2002z" />
    <glyph glyph-name="braceright" unicode="}" horiz-adv-x="887" 
d="M66 -344v278q40 2 84 7.5t75 27.5t31 72v276q0 117 61.5 172.5t178.5 73.5v12q-114 16 -177 72t-63 180v271q0 51 -30.5 73t-74.5 27t-85 6v279q213 0 324 -36.5t150.5 -111.5t39.5 -192v-254q0 -62 35 -99.5t91 -54t119 -16.5v-301q-61 0 -117.5 -17t-92 -54t-35.5 -99
v-248q0 -120 -41 -196t-152 -112t-321 -36z" />
    <glyph glyph-name="asciitilde" unicode="~" horiz-adv-x="1200" 
d="M561 592q-75 32 -131.5 43.5t-103.5 11.5q-60 0 -120.5 -35t-113.5 -86v281q53 54 117.5 81t146.5 27q60 0 120.5 -11.5t160.5 -51.5q75 -32 133 -43.5t104 -11.5q57 0 118.5 35t113.5 86v-281q-52 -54 -117.5 -81.5t-146.5 -27.5q-60 0 -120.5 12t-160.5 52z" />
    <glyph glyph-name="uni00A0" unicode="&#xa0;" horiz-adv-x="532" 
 />
    <glyph glyph-name="exclamdown" unicode="&#xa1;" horiz-adv-x="594" 
d="M133 612h330l51 -946h-432zM510 963q0 -106 -62.5 -149.5t-148.5 -43.5q-85 0 -146 43.5t-61 149.5q0 101 61 145.5t146 44.5q86 0 148.5 -44.5t62.5 -145.5z" />
    <glyph glyph-name="cent" unicode="&#xa2;" horiz-adv-x="1200" 
d="M772 1483v-154q89 -4 171 -26.5t153 -57.5l-115 -289q-70 31 -130.5 49.5t-125.5 18.5q-59 0 -104 -31t-70 -93.5t-25 -158.5q0 -98 25.5 -158t71 -87t104.5 -27q85 0 169.5 26.5t160.5 73.5v-311q-58 -38 -127.5 -63.5t-157.5 -34.5v-180h-207v186q-135 21 -233 89.5
t-150.5 188.5t-52.5 295q0 172 55.5 291.5t153.5 190.5t227 96v166h207z" />
    <glyph glyph-name="sterling" unicode="&#xa3;" horiz-adv-x="1200" 
d="M723 1485q109 0 213.5 -22.5t191.5 -59.5l-110 -289q-77 29 -141.5 42t-110.5 13q-48 0 -80.5 -27.5t-32.5 -109.5v-106h344v-277h-344v-96q0 -65 -25 -109.5t-61.5 -72.5t-72.5 -45h671v-326h-1061v313q55 32 91 60.5t54.5 69t18.5 108.5v98h-166v277h166v118
q0 155 57.5 252.5t160 143t237.5 45.5z" />
    <glyph glyph-name="currency" unicode="&#xa4;" horiz-adv-x="1159" 
d="M180 723q0 47 11.5 92.5t29.5 83.5l-125 119l180 182l123 -123q39 19 85.5 30t86.5 11q48 0 91 -11t86 -34l120 127l185 -174l-127 -125q20 -37 30.5 -84t10.5 -94q0 -49 -10 -92t-31 -84l121 -119l-179 -178l-120 119q-39 -17 -84 -28t-93 -11q-47 0 -91 8.5t-85 28.5
l-119 -115l-178 178l123 119q-21 41 -31 83.5t-10 90.5zM436 723q0 -38 18.5 -68.5t49.5 -48.5t67 -18q39 0 71.5 18t51.5 48.5t19 68.5q0 39 -19 70t-51.5 49t-71.5 18q-36 0 -67 -18t-49.5 -49t-18.5 -70z" />
    <glyph glyph-name="yen" unicode="&#xa5;" horiz-adv-x="1200" 
d="M600 958l193 504h399l-363 -712h195v-211h-242v-117h242v-209h-242v-213h-364v213h-246v209h246v117h-246v211h190l-354 712h400z" />
    <glyph glyph-name="brokenbar" unicode="&#xa6;" horiz-adv-x="1042" 
d="M387 1556h268v-839h-268v839zM387 393h268v-839h-268v839z" />
    <glyph glyph-name="section" unicode="&#xa7;" horiz-adv-x="1024" 
d="M106 803q0 78 52 137t112 96q-69 50 -105 110t-36 136q0 129 105 212t301 83q103 0 198.5 -24.5t171.5 -61.5l-98 -221q-66 35 -139 60.5t-136 25.5q-52 0 -80 -18.5t-28 -55.5q0 -22 14.5 -45.5t52.5 -49t107 -54.5q117 -47 189.5 -99t106.5 -109t34 -122
q0 -103 -46 -160.5t-102 -97.5q56 -42 90.5 -103t34.5 -141q0 -138 -109.5 -232t-326.5 -94q-103 0 -190.5 21.5t-161.5 64.5v244q58 -31 122.5 -55.5t125 -38.5t106.5 -14q78 0 108.5 26.5t30.5 69.5q0 28 -12.5 50t-49 46t-108.5 55q-98 44 -173.5 90.5t-118 110.5
t-42.5 158zM397 834q0 -34 18 -61.5t56 -54.5t98 -59l27 -14q14 16 27.5 41.5t13.5 65.5q0 36 -16.5 66.5t-56 59.5t-109.5 58q-22 -12 -40 -37t-18 -65z" />
    <glyph glyph-name="dieresis" unicode="&#xa8;" horiz-adv-x="1233" 
d="M223 1413q0 82 49 120t121 38q69 0 120.5 -38t51.5 -120q0 -79 -51.5 -117.5t-120.5 -38.5q-72 0 -121 38.5t-49 117.5zM702 1413q0 82 49.5 120t122.5 38q70 0 121.5 -38t51.5 -120q0 -79 -51.5 -117.5t-121.5 -38.5q-73 0 -122.5 38.5t-49.5 117.5z" />
    <glyph glyph-name="copyright" unicode="&#xa9;" horiz-adv-x="1688" 
d="M844 -20q-163 0 -300.5 55.5t-239 156.5t-157 238.5t-55.5 300.5q0 164 55.5 301t157 238.5t239 157t300.5 55.5q164 0 301 -55.5t238 -157t156.5 -238.5t55.5 -301q0 -163 -55.5 -300.5t-156.5 -238.5t-238 -156.5t-301 -55.5zM846 262q-221 0 -333 129.5t-112 343.5
q0 140 48.5 244t145.5 161.5t241 57.5q92 0 170 -20.5t151 -57.5l-92 -205q-52 28 -102 42t-109 14q-79 0 -125.5 -61.5t-46.5 -178.5q0 -127 43.5 -184.5t134.5 -57.5q65 0 131 16.5t127 51.5v-231q-63 -32 -127.5 -48t-144.5 -16zM844 143q125 0 229 43t179.5 121.5
t117 186t41.5 237.5t-41.5 237.5t-117 186t-179.5 121.5t-229 43q-127 0 -232 -43t-181 -121.5t-117.5 -186t-41.5 -237.5t41.5 -237.5t117.5 -186t181 -121.5t232 -43z" />
    <glyph glyph-name="ordfeminine" unicode="&#xaa;" horiz-adv-x="813" 
d="M436 1479q132 0 214.5 -72.5t82.5 -216.5v-449h-162l-45 127q-44 -69 -98.5 -104t-144.5 -35q-65 0 -118.5 26t-84.5 78.5t-31 133.5q0 87 40 136.5t117 71.5t187 27l88 4v6q0 41 -26 58.5t-76 17.5q-54 0 -100 -13t-111 -42l-76 166q76 37 149.5 58.5t194.5 21.5z
M481 1069l-84 -6q-61 -4 -78.5 -29.5t-17.5 -54.5q0 -32 18 -50t52 -18q55 0 82.5 42t27.5 94v22z" />
    <glyph glyph-name="guillemotleft" unicode="&#xab;" horiz-adv-x="1395" 
d="M74 588l389 483l280 -149l-272 -347l272 -348l-280 -147l-389 481v27zM649 588l387 483l283 -149l-275 -347l275 -348l-283 -147l-387 481v27z" />
    <glyph glyph-name="logicalnot" unicode="&#xac;" horiz-adv-x="1200" 
d="M1106 856v-618h-270v350h-744v268h1014z" />
    <glyph glyph-name="uni00AD" unicode="&#xad;" horiz-adv-x="651" 
d="M43 393v312h565v-312h-565z" />
    <glyph glyph-name="registered" unicode="&#xae;" horiz-adv-x="1688" 
d="M518 313v875h279q213 0 304 -70.5t91 -199.5q0 -105 -41 -159.5t-100 -82.5l194 -363h-278l-146 320h-35v-320h-268zM786 809h11q58 0 91.5 21.5t33.5 76.5q0 54 -33.5 70t-89.5 16h-13v-184zM844 -20q-163 0 -300.5 55.5t-239 156.5t-157 238.5t-55.5 300.5
q0 164 55.5 301t157 238.5t239 157t300.5 55.5q164 0 301 -55.5t238 -157t156.5 -238.5t55.5 -301q0 -163 -55.5 -300.5t-156.5 -238.5t-238 -156.5t-301 -55.5zM844 143q125 0 229 43t179.5 121.5t117 186t41.5 237.5t-41.5 237.5t-117 186t-179.5 121.5t-229 43
q-127 0 -232 -43t-181 -121.5t-117.5 -186t-41.5 -237.5t41.5 -237.5t117.5 -186t181 -121.5t232 -43z" />
    <glyph glyph-name="overscore" unicode="&#xaf;" horiz-adv-x="1024" 
d="M1030 1556h-1036v246h1036v-246z" />
    <glyph glyph-name="degree" unicode="&#xb0;" horiz-adv-x="864" 
d="M432 750q-107 0 -190.5 46t-131 128t-47.5 190q0 107 47.5 190t131 131t190.5 48q108 0 191 -48t130.5 -131t47.5 -190q0 -108 -47.5 -190t-130.5 -128t-191 -46zM432 987q60 0 95.5 35t35.5 92q0 60 -35.5 96.5t-95.5 36.5t-95.5 -36.5t-35.5 -96.5q0 -57 35.5 -92
t95.5 -35z" />
    <glyph glyph-name="plusminus" unicode="&#xb1;" horiz-adv-x="1200" 
d="M92 0v268h1014v-268h-1014zM733 944h373v-268h-373v-361h-268v361h-373v268h373v367h268v-367z" />
    <glyph glyph-name="uni00B2" unicode="&#xb2;" horiz-adv-x="817" 
d="M750 852h-674v207l215 213q58 57 90 95.5t45.5 65.5t13.5 48q0 28 -17 42.5t-48 14.5q-34 0 -74.5 -17t-97.5 -71l-142 166q68 62 153 98.5t218 36.5q148 0 222.5 -65.5t74.5 -172.5q0 -79 -37 -144t-96 -122t-127 -114l-66 -56h347v-225z" />
    <glyph glyph-name="uni00B3" unicode="&#xb3;" horiz-adv-x="817" 
d="M406 1747q152 0 235.5 -59t83.5 -156q0 -76 -37 -131.5t-125 -87.5v-8q97 -25 144 -77t47 -138q0 -123 -100 -188.5t-275 -65.5q-89 0 -168 17t-141 52v234q65 -45 141 -63.5t156 -18.5q52 0 84 15t32 52q0 28 -22 50t-113 22h-104v195h80q84 0 111.5 22.5t27.5 54.5
q0 25 -21 46.5t-71 21.5q-49 0 -93.5 -16.5t-97.5 -57.5l-117 170q62 48 148 81.5t195 33.5z" />
    <glyph glyph-name="acute" unicode="&#xb4;" horiz-adv-x="856" 
d="M774 1569v-21q-36 -29 -92 -70.5t-118.5 -86t-121 -84.5t-100.5 -66h-260v29q35 38 84 90.5t98 107.5t82 101h428z" />
    <glyph glyph-name="uni00B5" unicode="&#xb5;" horiz-adv-x="1376" 
d="M1241 1133v-1133h-293l-53 152h-16q-22 -58 -55.5 -96.5t-73.5 -57t-84 -18.5q-55 0 -87.5 20t-60.5 63h-4q3 -28 6 -69t4.5 -84.5t1.5 -81.5v-320h-391v1625h391v-615q0 -115 33.5 -172t112.5 -57q67 0 105 40t54.5 118t16.5 190v496h393z" />
    <glyph glyph-name="paragraph" unicode="&#xb6;" horiz-adv-x="1317" 
d="M1186 -260h-191v1587h-157v-1587h-191v819q-31 -9 -56 -13.5t-69 -4.5q-127 0 -221.5 47.5t-146.5 157t-52 296.5q0 196 57 308t158.5 159t235.5 47h633v-1816z" />
    <glyph glyph-name="periodcentered" unicode="&#xb7;" horiz-adv-x="592" 
d="M86 723q0 106 62.5 149t150.5 43q83 0 144 -43t61 -149q0 -101 -61 -146t-144 -45q-88 0 -150.5 45t-62.5 146z" />
    <glyph glyph-name="cedilla" unicode="&#xb8;" horiz-adv-x="590" 
d="M541 -252q0 -109 -75 -174.5t-200 -65.5q-70 0 -127 11t-94 24v193q34 -11 66.5 -17t66.5 -6q38 0 60 16t22 42q0 35 -33.5 55.5t-111.5 34.5l61 139h195l-19 -61q41 -9 85 -29t74 -58t30 -104z" />
    <glyph glyph-name="uni00B9" unicode="&#xb9;" horiz-adv-x="817" 
d="M616 1729v-877h-282v356q0 22 1.5 68.5t4 90.5t4.5 58q-9 -18 -27.5 -37.5t-33.5 -33.5l-80 -70l-146 170l340 275h219z" />
    <glyph glyph-name="ordmasculine" unicode="&#xba;" horiz-adv-x="803" 
d="M756 1104q0 -178 -97 -276.5t-260 -98.5q-153 0 -251.5 100t-98.5 275q0 179 95 277t259 98q100 0 179.5 -45t126.5 -128.5t47 -201.5zM301 1104q0 -86 24 -129t76 -43q51 0 75 43t24 129t-24 130t-75 44q-52 0 -76 -44t-24 -130z" />
    <glyph glyph-name="guillemotright" unicode="&#xbb;" horiz-adv-x="1395" 
d="M1321 561l-387 -481l-285 147l275 348l-275 347l285 149l387 -483v-27zM745 561l-387 -481l-282 147l272 348l-272 347l282 149l387 -483v-27z" />
    <glyph glyph-name="onequarter" unicode="&#xbc;" horiz-adv-x="1817" 
d="M356 0l754 1462h301l-754 -1462h-301zM264 586v356q0 20 1 57t3 80t6 80q-4 -9 -20.5 -28t-36.5 -39l-84 -74l-145 170l340 274h219v-876h-283zM1399 0v139h-371v189l350 555h295v-543h125v-201h-125v-139h-274zM1241 340h158v166q0 35 1.5 69t4.5 66
q-20 -51 -35.5 -83.5t-26.5 -49.5z" />
    <glyph glyph-name="onehalf" unicode="&#xbd;" horiz-adv-x="1896" 
d="M381 0l754 1462h301l-754 -1462h-301zM264 586v356q0 9 1 41.5t3 72t3.5 69.5t2.5 34q-4 -9 -23.5 -31t-39.5 -41l-78 -69l-145 170l340 274h219v-876h-283zM1155 0v207l215 213q57 56 89.5 94t46.5 65t14 50q0 29 -17 43t-49 14q-40 0 -83 -22t-89 -66l-141 166
q80 74 167 104.5t203 30.5q142 0 219.5 -62.5t77.5 -174.5q0 -54 -17.5 -101t-47 -87t-64.5 -75l-196 -174h346v-225h-674z" />
    <glyph glyph-name="threequarters" unicode="&#xbe;" horiz-adv-x="1888" 
d="M465 0l754 1462h301l-754 -1462h-301zM399 569q-92 0 -169 17.5t-140 52.5v233q59 -41 132.5 -61t164.5 -20q59 0 88 16.5t29 50.5q0 41 -33 56.5t-102 15.5h-105v194h80q72 0 105.5 18.5t33.5 59.5q0 25 -20.5 46.5t-71.5 21.5q-49 0 -93 -16.5t-97 -57.5l-117 170
q75 57 160 86t182 29q148 0 233.5 -57.5t85.5 -157.5q0 -79 -37 -133t-124 -86v-9q97 -24 143.5 -76.5t46.5 -138.5q0 -121 -98 -187.5t-277 -66.5zM1470 0v139h-370v189l350 555h295v-543h125v-201h-125v-139h-275zM1313 340h157v166q0 35 2 69t5 66q-20 -51 -35.5 -83.5
t-26.5 -49.5z" />
    <glyph glyph-name="questiondown" unicode="&#xbf;" horiz-adv-x="1034" 
d="M739 612v-86q0 -61 -15.5 -111.5t-55 -95.5t-111.5 -90q-67 -43 -99.5 -74.5t-42.5 -57.5t-10 -54q0 -42 38 -66.5t99 -24.5q76 0 164.5 27.5t188.5 79.5l139 -272q-112 -64 -240.5 -103t-279.5 -39q-227 0 -352 100.5t-125 264.5q0 79 24 144t76 122t137 111
q61 39 95 65.5t48.5 51.5t14.5 57v51h307zM782 962q0 -106 -61.5 -149t-149.5 -43q-84 0 -145.5 43t-61.5 149q0 101 61.5 146t145.5 45q88 0 149.5 -45t61.5 -146z" />
    <glyph glyph-name="Agrave" unicode="&#xc0;" horiz-adv-x="1487" 
d="M1055 0l-72 274h-475l-74 -274h-434l477 1468h527l483 -1468h-432zM901 598l-63 240q-10 39 -29 111.5t-37.5 150t-28.5 127.5q-9 -50 -25.5 -123.5t-34 -145.5t-30.5 -120l-63 -240h311zM741 1899q35 -46 83.5 -101t97 -107.5t81.5 -90.5v-29h-260q-42 26 -100 66
t-121 84.5t-118.5 86t-92.5 70.5v21h430z" />
    <glyph glyph-name="Aacute" unicode="&#xc1;" horiz-adv-x="1487" 
d="M1055 0l-72 274h-475l-74 -274h-434l477 1468h527l483 -1468h-432zM901 598l-63 240q-10 39 -29 111.5t-37.5 150t-28.5 127.5q-9 -50 -25.5 -123.5t-34 -145.5t-30.5 -120l-63 -240h311zM1231 1899v-21q-36 -29 -92 -70.5t-118.5 -86t-121 -84.5t-100.5 -66h-260v29
q35 38 84 90.5t98 107.5t82 101h428z" />
    <glyph glyph-name="Acircumflex" unicode="&#xc2;" horiz-adv-x="1487" 
d="M1055 0l-72 274h-475l-74 -274h-434l477 1468h527l483 -1468h-432zM901 598l-63 240q-10 39 -29 111.5t-37.5 150t-28.5 127.5q-9 -50 -25.5 -123.5t-34 -145.5t-30.5 -120l-63 -240h311zM944 1899q32 -47 79 -103.5t95 -108.5t82 -87v-29h-254q-53 31 -100 67.5
t-100 82.5q-54 -46 -97.5 -81t-97.5 -69h-258v29q39 37 87.5 89t94.5 107.5t76 102.5h393z" />
    <glyph glyph-name="Atilde" unicode="&#xc3;" horiz-adv-x="1487" 
d="M1055 0l-72 274h-475l-74 -274h-434l477 1468h527l483 -1468h-432zM901 598l-63 240q-10 39 -29 111.5t-37.5 150t-28.5 127.5q-9 -50 -25.5 -123.5t-34 -145.5t-30.5 -120l-63 -240h311zM320 1567q6 94 25.5 159t51 105.5t76 59t99.5 18.5q38 0 81 -14.5t87 -33.5
t86.5 -33.5t81.5 -14.5q18 0 39.5 17t31.5 81h183q-13 -184 -80.5 -263t-165.5 -79q-45 0 -90.5 14.5t-89.5 33.5t-85 33.5t-79 14.5q-19 0 -39 -16t-33 -82h-180z" />
    <glyph glyph-name="Adieresis" unicode="&#xc4;" horiz-adv-x="1487" 
d="M1055 0l-72 274h-475l-74 -274h-434l477 1468h527l483 -1468h-432zM901 598l-63 240q-10 39 -29 111.5t-37.5 150t-28.5 127.5q-9 -50 -25.5 -123.5t-34 -145.5t-30.5 -120l-63 -240h311zM332 1743q0 82 49 120t121 38q69 0 120.5 -38t51.5 -120q0 -79 -51.5 -117.5
t-120.5 -38.5q-72 0 -121 38.5t-49 117.5zM811 1743q0 82 49.5 120t122.5 38q70 0 121.5 -38t51.5 -120q0 -79 -51.5 -117.5t-121.5 -38.5q-73 0 -122.5 38.5t-49.5 117.5z" />
    <glyph glyph-name="Aring" unicode="&#xc5;" horiz-adv-x="1487" 
d="M1055 0l-72 274h-475l-74 -274h-434l477 1468h527l483 -1468h-432zM901 598l-63 240q-10 39 -29 111.5t-37.5 150t-28.5 127.5q-9 -50 -25.5 -123.5t-34 -145.5t-30.5 -120l-63 -240h311zM737 1303q-118 0 -191 67.5t-73 184.5q0 119 73 186.5t191 67.5
q113 0 192.5 -67.5t79.5 -184.5q0 -118 -79 -186t-193 -68zM737 1471q35 0 59.5 23.5t24.5 60.5q0 38 -24.5 61t-59.5 23t-59.5 -23t-24.5 -61q0 -37 21.5 -60.5t62.5 -23.5z" />
    <glyph glyph-name="AE" unicode="&#xc6;" horiz-adv-x="1937" 
d="M1839 0h-870v274h-437l-100 -274h-442l628 1462h1221v-317h-473v-230h438v-317h-438v-276h473v-322zM653 602h316v526h-111z" />
    <glyph glyph-name="Ccedilla" unicode="&#xc7;" horiz-adv-x="1329" 
d="M809 1159q-70 0 -125 -29.5t-94 -85.5t-59.5 -136.5t-20.5 -182.5q0 -138 35 -232t106.5 -142t179.5 -48q98 0 188.5 27t182.5 65v-334q-97 -43 -198.5 -62t-215.5 -19q-238 0 -389.5 94.5t-223 262.5t-71.5 390q0 166 46.5 304t136.5 239.5t222.5 157t303.5 55.5
q106 0 223.5 -24.5t229.5 -78.5l-121 -311q-80 38 -162 64t-174 26zM1012 -252q0 -109 -75 -174.5t-200 -65.5q-70 0 -127 11t-94 24v193q34 -11 66.5 -17t66.5 -6q38 0 60 16t22 42q0 35 -33.5 55.5t-111.5 34.5l61 139h195l-19 -61q41 -9 85 -29t74 -58t30 -104z" />
    <glyph glyph-name="Egrave" unicode="&#xc8;" horiz-adv-x="1124" 
d="M1026 0h-868v1462h868v-317h-473v-230h438v-317h-438v-276h473v-322zM590 1899q35 -46 83.5 -101t97 -107.5t81.5 -90.5v-29h-260q-42 26 -100 66t-121 84.5t-118.5 86t-92.5 70.5v21h430z" />
    <glyph glyph-name="Eacute" unicode="&#xc9;" horiz-adv-x="1124" 
d="M1026 0h-868v1462h868v-317h-473v-230h438v-317h-438v-276h473v-322zM1079 1899v-21q-36 -29 -92 -70.5t-118.5 -86t-121 -84.5t-100.5 -66h-260v29q35 38 84 90.5t98 107.5t82 101h428z" />
    <glyph glyph-name="Ecircumflex" unicode="&#xca;" horiz-adv-x="1124" 
d="M1026 0h-868v1462h868v-317h-473v-230h438v-317h-438v-276h473v-322zM792 1899q32 -47 79 -103.5t95 -108.5t82 -87v-29h-254q-53 31 -100 67.5t-100 82.5q-54 -46 -97.5 -81t-97.5 -69h-258v29q39 37 87.5 89t94.5 107.5t76 102.5h393z" />
    <glyph glyph-name="Edieresis" unicode="&#xcb;" horiz-adv-x="1124" 
d="M1026 0h-868v1462h868v-317h-473v-230h438v-317h-438v-276h473v-322zM180 1743q0 82 49 120t121 38q69 0 120.5 -38t51.5 -120q0 -79 -51.5 -117.5t-120.5 -38.5q-72 0 -121 38.5t-49 117.5zM659 1743q0 82 49.5 120t122.5 38q70 0 121.5 -38t51.5 -120
q0 -79 -51.5 -117.5t-121.5 -38.5q-73 0 -122.5 38.5t-49.5 117.5z" />
    <glyph glyph-name="Igrave" unicode="&#xcc;" horiz-adv-x="713" 
d="M158 0v1462h397v-1462h-397zM317 1899q35 -46 83.5 -101t97 -107.5t81.5 -90.5v-29h-260q-42 26 -100 66t-121 84.5t-118.5 86t-92.5 70.5v21h430z" />
    <glyph glyph-name="Iacute" unicode="&#xcd;" horiz-adv-x="713" 
d="M158 0v1462h397v-1462h-397zM845 1899v-21q-36 -29 -92 -70.5t-118.5 -86t-121 -84.5t-100.5 -66h-260v29q35 38 84 90.5t98 107.5t82 101h428z" />
    <glyph glyph-name="Icircumflex" unicode="&#xce;" horiz-adv-x="713" 
d="M158 0v1462h397v-1462h-397zM555 1899q32 -47 79 -103.5t95 -108.5t82 -87v-29h-254q-53 31 -100 67.5t-100 82.5q-54 -46 -97.5 -81t-97.5 -69h-258v29q39 37 87.5 89t94.5 107.5t76 102.5h393z" />
    <glyph glyph-name="Idieresis" unicode="&#xcf;" horiz-adv-x="713" 
d="M158 0v1462h397v-1462h-397zM-56 1743q0 82 49 120t121 38q69 0 120.5 -38t51.5 -120q0 -79 -51.5 -117.5t-120.5 -38.5q-72 0 -121 38.5t-49 117.5zM423 1743q0 82 49.5 120t122.5 38q70 0 121.5 -38t51.5 -120q0 -79 -51.5 -117.5t-121.5 -38.5q-73 0 -122.5 38.5
t-49.5 117.5z" />
    <glyph glyph-name="Eth" unicode="&#xd0;" horiz-adv-x="1503" 
d="M664 1462q236 0 400 -81t249.5 -237t85.5 -382q0 -255 -95 -424t-267.5 -253.5t-405.5 -84.5h-473v563h-127v320h127v579h506zM668 1143h-115v-260h211v-320h-211v-239h88q180 0 264 104.5t84 319.5q0 133 -35.5 220.5t-106.5 131t-179 43.5z" />
    <glyph glyph-name="Ntilde" unicode="&#xd1;" horiz-adv-x="1708" 
d="M1550 0h-518l-534 1030h-9q5 -47 9 -113t7 -134.5t3 -123.5v-659h-350v1462h516l532 -1016h6q-3 48 -6 111.5t-5.5 128.5t-2.5 115v661h352v-1462zM430 1567q6 94 25.5 159t51 105.5t76 59t99.5 18.5q38 0 81 -14.5t87 -33.5t86.5 -33.5t81.5 -14.5q18 0 39.5 17t31.5 81
h183q-13 -184 -80.5 -263t-165.5 -79q-45 0 -90.5 14.5t-89.5 33.5t-85 33.5t-79 14.5q-19 0 -39 -16t-33 -82h-180z" />
    <glyph glyph-name="Ograve" unicode="&#xd2;" horiz-adv-x="1632" 
d="M1526 733q0 -169 -40.5 -307.5t-126.5 -238.5t-221 -153.5t-323 -53.5q-184 0 -318.5 53.5t-221.5 153t-129 238.5t-42 310q0 228 75.5 396.5t233.5 261t404 92.5q250 0 406.5 -93t229.5 -262t73 -397zM520 733q0 -132 30 -227t95 -146t170 -51q109 0 173.5 51t93 146
t28.5 227q0 198 -66 313t-227 115q-107 0 -172.5 -52t-95 -148t-29.5 -228zM815 1899q35 -46 83.5 -101t97 -107.5t81.5 -90.5v-29h-260q-42 26 -100 66t-121 84.5t-118.5 86t-92.5 70.5v21h430z" />
    <glyph glyph-name="Oacute" unicode="&#xd3;" horiz-adv-x="1632" 
d="M1526 733q0 -169 -40.5 -307.5t-126.5 -238.5t-221 -153.5t-323 -53.5q-184 0 -318.5 53.5t-221.5 153t-129 238.5t-42 310q0 228 75.5 396.5t233.5 261t404 92.5q250 0 406.5 -93t229.5 -262t73 -397zM520 733q0 -132 30 -227t95 -146t170 -51q109 0 173.5 51t93 146
t28.5 227q0 198 -66 313t-227 115q-107 0 -172.5 -52t-95 -148t-29.5 -228zM1304 1899v-21q-36 -29 -92 -70.5t-118.5 -86t-121 -84.5t-100.5 -66h-260v29q35 38 84 90.5t98 107.5t82 101h428z" />
    <glyph glyph-name="Ocircumflex" unicode="&#xd4;" horiz-adv-x="1632" 
d="M1526 733q0 -169 -40.5 -307.5t-126.5 -238.5t-221 -153.5t-323 -53.5q-184 0 -318.5 53.5t-221.5 153t-129 238.5t-42 310q0 228 75.5 396.5t233.5 261t404 92.5q250 0 406.5 -93t229.5 -262t73 -397zM520 733q0 -132 30 -227t95 -146t170 -51q109 0 173.5 51t93 146
t28.5 227q0 198 -66 313t-227 115q-107 0 -172.5 -52t-95 -148t-29.5 -228zM1018 1899q32 -47 79 -103.5t95 -108.5t82 -87v-29h-254q-53 31 -100 67.5t-100 82.5q-54 -46 -97.5 -81t-97.5 -69h-258v29q39 37 87.5 89t94.5 107.5t76 102.5h393z" />
    <glyph glyph-name="Otilde" unicode="&#xd5;" horiz-adv-x="1632" 
d="M1526 733q0 -169 -40.5 -307.5t-126.5 -238.5t-221 -153.5t-323 -53.5q-184 0 -318.5 53.5t-221.5 153t-129 238.5t-42 310q0 228 75.5 396.5t233.5 261t404 92.5q250 0 406.5 -93t229.5 -262t73 -397zM520 733q0 -132 30 -227t95 -146t170 -51q109 0 173.5 51t93 146
t28.5 227q0 198 -66 313t-227 115q-107 0 -172.5 -52t-95 -148t-29.5 -228zM393 1567q6 94 25.5 159t51 105.5t76 59t99.5 18.5q38 0 81 -14.5t87 -33.5t86.5 -33.5t81.5 -14.5q18 0 39.5 17t31.5 81h183q-13 -184 -80.5 -263t-165.5 -79q-45 0 -90.5 14.5t-89.5 33.5
t-85 33.5t-79 14.5q-19 0 -39 -16t-33 -82h-180z" />
    <glyph glyph-name="Odieresis" unicode="&#xd6;" horiz-adv-x="1632" 
d="M1526 733q0 -169 -40.5 -307.5t-126.5 -238.5t-221 -153.5t-323 -53.5q-184 0 -318.5 53.5t-221.5 153t-129 238.5t-42 310q0 228 75.5 396.5t233.5 261t404 92.5q250 0 406.5 -93t229.5 -262t73 -397zM520 733q0 -132 30 -227t95 -146t170 -51q109 0 173.5 51t93 146
t28.5 227q0 198 -66 313t-227 115q-107 0 -172.5 -52t-95 -148t-29.5 -228zM405 1743q0 82 49 120t121 38q69 0 120.5 -38t51.5 -120q0 -79 -51.5 -117.5t-120.5 -38.5q-72 0 -121 38.5t-49 117.5zM884 1743q0 82 49.5 120t122.5 38q70 0 121.5 -38t51.5 -120
q0 -79 -51.5 -117.5t-121.5 -38.5q-73 0 -122.5 38.5t-49.5 117.5z" />
    <glyph glyph-name="multiply" unicode="&#xd7;" horiz-adv-x="1200" 
d="M868 1180l189 -183l-275 -274l271 -272l-185 -185l-274 271l-270 -269l-181 187l265 268l-267 268l183 189l270 -267z" />
    <glyph glyph-name="Oslash" unicode="&#xd8;" horiz-adv-x="1632" 
d="M1526 733q0 -169 -40.5 -307.5t-126.5 -238.5t-221 -153.5t-323 -53.5q-88 0 -164.5 10.5t-142.5 32.5l-84 -132l-193 125l84 125q-109 100 -160 251t-51 343q0 228 75.5 396.5t233.5 261t404 92.5q97 0 180 -14t150 -41l76 118l190 -114l-82 -125q101 -98 148 -245.5
t47 -330.5zM1110 733q0 62 -4.5 115t-13.5 96l-394 -620q25 -7 55 -11t62 -4q109 0 173.5 51t93 146t28.5 227zM520 733q0 -69 6 -129.5t23 -109.5l403 639q-29 12 -63.5 20t-71.5 8q-107 0 -172.5 -52t-95 -148t-29.5 -228z" />
    <glyph glyph-name="Ugrave" unicode="&#xd9;" horiz-adv-x="1550" 
d="M1401 1462v-880q0 -184 -70 -319.5t-210 -209t-351 -73.5q-302 0 -461 155t-159 438v889h397v-858q0 -155 58 -225t171 -70q81 0 132 30.5t74.5 96.5t23.5 170v856h395zM774 1899q35 -46 83.5 -101t97 -107.5t81.5 -90.5v-29h-260q-42 26 -100 66t-121 84.5t-118.5 86
t-92.5 70.5v21h430z" />
    <glyph glyph-name="Uacute" unicode="&#xda;" horiz-adv-x="1550" 
d="M1401 1462v-880q0 -184 -70 -319.5t-210 -209t-351 -73.5q-302 0 -461 155t-159 438v889h397v-858q0 -155 58 -225t171 -70q81 0 132 30.5t74.5 96.5t23.5 170v856h395zM1263 1899v-21q-36 -29 -92 -70.5t-118.5 -86t-121 -84.5t-100.5 -66h-260v29q35 38 84 90.5
t98 107.5t82 101h428z" />
    <glyph glyph-name="Ucircumflex" unicode="&#xdb;" horiz-adv-x="1550" 
d="M1401 1462v-880q0 -184 -70 -319.5t-210 -209t-351 -73.5q-302 0 -461 155t-159 438v889h397v-858q0 -155 58 -225t171 -70q81 0 132 30.5t74.5 96.5t23.5 170v856h395zM977 1899q32 -47 79 -103.5t95 -108.5t82 -87v-29h-254q-53 31 -100 67.5t-100 82.5
q-54 -46 -97.5 -81t-97.5 -69h-258v29q39 37 87.5 89t94.5 107.5t76 102.5h393z" />
    <glyph glyph-name="Udieresis" unicode="&#xdc;" horiz-adv-x="1550" 
d="M1401 1462v-880q0 -184 -70 -319.5t-210 -209t-351 -73.5q-302 0 -461 155t-159 438v889h397v-858q0 -155 58 -225t171 -70q81 0 132 30.5t74.5 96.5t23.5 170v856h395zM364 1743q0 82 49 120t121 38q69 0 120.5 -38t51.5 -120q0 -79 -51.5 -117.5t-120.5 -38.5
q-72 0 -121 38.5t-49 117.5zM843 1743q0 82 49.5 120t122.5 38q70 0 121.5 -38t51.5 -120q0 -79 -51.5 -117.5t-121.5 -38.5q-73 0 -122.5 38.5t-49.5 117.5z" />
    <glyph glyph-name="Yacute" unicode="&#xdd;" horiz-adv-x="1360" 
d="M680 920l252 542h428l-481 -891v-571h-398v559l-481 903h430zM1167 1899v-21q-36 -29 -92 -70.5t-118.5 -86t-121 -84.5t-100.5 -66h-260v29q35 38 84 90.5t98 107.5t82 101h428z" />
    <glyph glyph-name="Thorn" unicode="&#xde;" horiz-adv-x="1284" 
d="M1219 784q0 -100 -28.5 -192t-93 -164t-171 -114t-262.5 -42h-111v-272h-395v1462h395v-213h111q278 0 416.5 -121t138.5 -344zM553 594h72q51 0 95.5 19.5t71.5 61t27 107.5q0 69 -39 108.5t-125 39.5h-102v-336z" />
    <glyph glyph-name="germandbls" unicode="&#xdf;" horiz-adv-x="1536" 
d="M1339 1190q0 -69 -27 -122t-67 -94t-80 -71t-67 -52.5t-27 -39.5q0 -25 23.5 -44t70 -44t113.5 -68q68 -43 112 -86.5t65.5 -99.5t21.5 -135q0 -115 -52 -194t-152.5 -119.5t-248.5 -40.5q-138 0 -222 12.5t-149 46.5v291q34 -20 84 -38.5t102 -30t93 -11.5q57 0 97 22.5
t40 63.5q0 23 -11.5 42t-51 45.5t-123.5 70.5q-83 44 -132 83.5t-70.5 82.5t-21.5 96q0 64 28 108t70 77.5t83.5 63t69.5 63.5t28 81q0 51 -50 85t-140 34q-76 0 -125 -24.5t-73 -71t-24 -113.5v-1059h-391v1100q0 151 79.5 255t218.5 158t315 54q172 0 305.5 -41.5
t209.5 -125.5t76 -210z" />
    <glyph glyph-name="agrave" unicode="&#xe0;" horiz-adv-x="1276" 
d="M688 1153q215 0 336 -106.5t121 -303.5v-743h-271l-75 150h-8q-48 -60 -98.5 -97.5t-115.5 -55t-159 -17.5q-98 0 -176 40t-123 121t-45 205q0 182 126 270t365 99l189 6v16q0 76 -37.5 108t-100.5 32q-67 0 -149.5 -23.5t-165.5 -60.5l-113 258q98 50 222 76t278 26z
M756 506l-90 -4q-108 -4 -151.5 -37.5t-43.5 -95.5q0 -58 31 -85.5t82 -27.5q71 0 121.5 45t50.5 117v88zM637 1569q35 -46 83.5 -101t97 -107.5t81.5 -90.5v-29h-260q-42 26 -100 66t-121 84.5t-118.5 86t-92.5 70.5v21h430z" />
    <glyph glyph-name="aacute" unicode="&#xe1;" horiz-adv-x="1276" 
d="M688 1153q215 0 336 -106.5t121 -303.5v-743h-271l-75 150h-8q-48 -60 -98.5 -97.5t-115.5 -55t-159 -17.5q-98 0 -176 40t-123 121t-45 205q0 182 126 270t365 99l189 6v16q0 76 -37.5 108t-100.5 32q-67 0 -149.5 -23.5t-165.5 -60.5l-113 258q98 50 222 76t278 26z
M756 506l-90 -4q-108 -4 -151.5 -37.5t-43.5 -95.5q0 -58 31 -85.5t82 -27.5q71 0 121.5 45t50.5 117v88zM1126 1569v-21q-36 -29 -92 -70.5t-118.5 -86t-121 -84.5t-100.5 -66h-260v29q35 38 84 90.5t98 107.5t82 101h428z" />
    <glyph glyph-name="acircumflex" unicode="&#xe2;" horiz-adv-x="1276" 
d="M688 1153q215 0 336 -106.5t121 -303.5v-743h-271l-75 150h-8q-48 -60 -98.5 -97.5t-115.5 -55t-159 -17.5q-98 0 -176 40t-123 121t-45 205q0 182 126 270t365 99l189 6v16q0 76 -37.5 108t-100.5 32q-67 0 -149.5 -23.5t-165.5 -60.5l-113 258q98 50 222 76t278 26z
M756 506l-90 -4q-108 -4 -151.5 -37.5t-43.5 -95.5q0 -58 31 -85.5t82 -27.5q71 0 121.5 45t50.5 117v88zM839 1569q32 -47 79 -103.5t95 -108.5t82 -87v-29h-254q-53 31 -100 67.5t-100 82.5q-54 -46 -97.5 -81t-97.5 -69h-258v29q39 37 87.5 89t94.5 107.5t76 102.5h393z
" />
    <glyph glyph-name="atilde" unicode="&#xe3;" horiz-adv-x="1276" 
d="M688 1153q215 0 336 -106.5t121 -303.5v-743h-271l-75 150h-8q-48 -60 -98.5 -97.5t-115.5 -55t-159 -17.5q-98 0 -176 40t-123 121t-45 205q0 182 126 270t365 99l189 6v16q0 76 -37.5 108t-100.5 32q-67 0 -149.5 -23.5t-165.5 -60.5l-113 258q98 50 222 76t278 26z
M756 506l-90 -4q-108 -4 -151.5 -37.5t-43.5 -95.5q0 -58 31 -85.5t82 -27.5q71 0 121.5 45t50.5 117v88zM215 1237q6 94 25.5 159t51 105.5t76 59t99.5 18.5q38 0 81 -14.5t87 -33.5t86.5 -33.5t81.5 -14.5q18 0 39.5 17t31.5 81h183q-13 -184 -80.5 -263t-165.5 -79
q-45 0 -90.5 14.5t-89.5 33.5t-85 33.5t-79 14.5q-19 0 -39 -16t-33 -82h-180z" />
    <glyph glyph-name="adieresis" unicode="&#xe4;" horiz-adv-x="1276" 
d="M688 1153q215 0 336 -106.5t121 -303.5v-743h-271l-75 150h-8q-48 -60 -98.5 -97.5t-115.5 -55t-159 -17.5q-98 0 -176 40t-123 121t-45 205q0 182 126 270t365 99l189 6v16q0 76 -37.5 108t-100.5 32q-67 0 -149.5 -23.5t-165.5 -60.5l-113 258q98 50 222 76t278 26z
M756 506l-90 -4q-108 -4 -151.5 -37.5t-43.5 -95.5q0 -58 31 -85.5t82 -27.5q71 0 121.5 45t50.5 117v88zM227 1413q0 82 49 120t121 38q69 0 120.5 -38t51.5 -120q0 -79 -51.5 -117.5t-120.5 -38.5q-72 0 -121 38.5t-49 117.5zM706 1413q0 82 49.5 120t122.5 38
q70 0 121.5 -38t51.5 -120q0 -79 -51.5 -117.5t-121.5 -38.5q-73 0 -122.5 38.5t-49.5 117.5z" />
    <glyph glyph-name="aring" unicode="&#xe5;" horiz-adv-x="1276" 
d="M688 1153q215 0 336 -106.5t121 -303.5v-743h-271l-75 150h-8q-48 -60 -98.5 -97.5t-115.5 -55t-159 -17.5q-98 0 -176 40t-123 121t-45 205q0 182 126 270t365 99l189 6v16q0 76 -37.5 108t-100.5 32q-67 0 -149.5 -23.5t-165.5 -60.5l-113 258q98 50 222 76t278 26z
M756 506l-90 -4q-108 -4 -151.5 -37.5t-43.5 -95.5q0 -58 31 -85.5t82 -27.5q71 0 121.5 45t50.5 117v88zM639 1237q-118 0 -191 67.5t-73 184.5q0 119 73 186.5t191 67.5q113 0 192.5 -67.5t79.5 -184.5q0 -118 -79 -186t-193 -68zM639 1405q35 0 59.5 23.5t24.5 60.5
q0 38 -24.5 61t-59.5 23t-59.5 -23t-24.5 -61q0 -37 21.5 -60.5t62.5 -23.5z" />
    <glyph glyph-name="ae" unicode="&#xe6;" horiz-adv-x="1915" 
d="M1337 1153q144 0 255 -57.5t174 -173t63 -289.5v-172h-696q5 -83 69.5 -143t190.5 -60q78 0 172.5 18.5t191.5 67.5v-281q-82 -43 -176 -63t-240 -20q-86 0 -165 20t-146 62.5t-119 107.5q-69 -72 -131.5 -113.5t-142.5 -59t-203 -17.5q-94 0 -176 40t-133 122.5
t-51 209.5q0 126 62 204t174 116t261 43l183 6v18q0 82 -41 110t-95 28q-67 0 -150 -21.5t-163 -58.5l-110 256q97 50 213.5 75t240.5 25q97 0 182 -23.5t154 -70.5q71 49 153.5 71.5t198.5 22.5zM756 506l-84 -4q-115 -3 -157 -42t-42 -104q0 -55 31 -77.5t82 -22.5
q46 0 84.5 20.5t62 57t23.5 84.5v88zM1315 887q-72 0 -120 -40t-56 -140h340q-1 49 -20 90t-55.5 65.5t-88.5 24.5z" />
    <glyph glyph-name="ccedilla" unicode="&#xe7;" horiz-adv-x="1104" 
d="M651 -20q-172 0 -299 61.5t-196.5 190t-69.5 329.5q0 206 77.5 337t212.5 193t306 62q104 0 197.5 -23t173.5 -63l-115 -289q-70 31 -130.5 49.5t-125.5 18.5q-59 0 -104 -31t-70 -93.5t-25 -158.5q0 -98 25.5 -158t71 -87t104.5 -27q85 0 169.5 26.5t160.5 73.5v-311
q-70 -46 -158 -73t-205 -27zM881 -252q0 -109 -75 -174.5t-200 -65.5q-70 0 -127 11t-94 24v193q34 -11 66.5 -17t66.5 -6q38 0 60 16t22 42q0 35 -33.5 55.5t-111.5 34.5l61 139h195l-19 -61q41 -9 85 -29t74 -58t30 -104z" />
    <glyph glyph-name="egrave" unicode="&#xe8;" horiz-adv-x="1266" 
d="M645 1153q165 0 285 -57.5t185 -172.5t65 -288v-174h-699q5 -89 66.5 -146t181.5 -57q106 0 194.5 21t182.5 65v-281q-82 -43 -179 -63t-245 -20q-171 0 -306 61t-212.5 189t-77.5 329q0 204 70 335.5t196 195t293 63.5zM659 887q-69 0 -115.5 -43.5t-54.5 -136.5h336
q-1 50 -20 91t-55.5 65t-90.5 24zM631 1569q35 -46 83.5 -101t97 -107.5t81.5 -90.5v-29h-260q-42 26 -100 66t-121 84.5t-118.5 86t-92.5 70.5v21h430z" />
    <glyph glyph-name="eacute" unicode="&#xe9;" horiz-adv-x="1266" 
d="M645 1153q165 0 285 -57.5t185 -172.5t65 -288v-174h-699q5 -89 66.5 -146t181.5 -57q106 0 194.5 21t182.5 65v-281q-82 -43 -179 -63t-245 -20q-171 0 -306 61t-212.5 189t-77.5 329q0 204 70 335.5t196 195t293 63.5zM659 887q-69 0 -115.5 -43.5t-54.5 -136.5h336
q-1 50 -20 91t-55.5 65t-90.5 24zM1120 1569v-21q-36 -29 -92 -70.5t-118.5 -86t-121 -84.5t-100.5 -66h-260v29q35 38 84 90.5t98 107.5t82 101h428z" />
    <glyph glyph-name="ecircumflex" unicode="&#xea;" horiz-adv-x="1266" 
d="M645 1153q165 0 285 -57.5t185 -172.5t65 -288v-174h-699q5 -89 66.5 -146t181.5 -57q106 0 194.5 21t182.5 65v-281q-82 -43 -179 -63t-245 -20q-171 0 -306 61t-212.5 189t-77.5 329q0 204 70 335.5t196 195t293 63.5zM659 887q-69 0 -115.5 -43.5t-54.5 -136.5h336
q-1 50 -20 91t-55.5 65t-90.5 24zM833 1569q32 -47 79 -103.5t95 -108.5t82 -87v-29h-254q-53 31 -100 67.5t-100 82.5q-54 -46 -97.5 -81t-97.5 -69h-258v29q39 37 87.5 89t94.5 107.5t76 102.5h393z" />
    <glyph glyph-name="edieresis" unicode="&#xeb;" horiz-adv-x="1266" 
d="M645 1153q165 0 285 -57.5t185 -172.5t65 -288v-174h-699q5 -89 66.5 -146t181.5 -57q106 0 194.5 21t182.5 65v-281q-82 -43 -179 -63t-245 -20q-171 0 -306 61t-212.5 189t-77.5 329q0 204 70 335.5t196 195t293 63.5zM659 887q-69 0 -115.5 -43.5t-54.5 -136.5h336
q-1 50 -20 91t-55.5 65t-90.5 24zM221 1413q0 82 49 120t121 38q69 0 120.5 -38t51.5 -120q0 -79 -51.5 -117.5t-120.5 -38.5q-72 0 -121 38.5t-49 117.5zM700 1413q0 82 49.5 120t122.5 38q70 0 121.5 -38t51.5 -120q0 -79 -51.5 -117.5t-121.5 -38.5q-73 0 -122.5 38.5
t-49.5 117.5z" />
    <glyph glyph-name="igrave" unicode="&#xec;" horiz-adv-x="666" 
d="M528 0h-391v1133h391v-1133zM332 1569q35 -46 83.5 -101t97 -107.5t81.5 -90.5v-29h-260q-42 26 -100 66t-121 84.5t-118.5 86t-92.5 70.5v21h430z" />
    <glyph glyph-name="iacute" unicode="&#xed;" horiz-adv-x="666" 
d="M528 0h-391v1133h391v-1133zM821 1569v-21q-36 -29 -92 -70.5t-118.5 -86t-121 -84.5t-100.5 -66h-260v29q35 38 84 90.5t98 107.5t82 101h428z" />
    <glyph glyph-name="icircumflex" unicode="&#xee;" horiz-adv-x="666" 
d="M528 0h-391v1133h391v-1133zM534 1569q32 -47 79 -103.5t95 -108.5t82 -87v-29h-254q-53 31 -100 67.5t-100 82.5q-54 -46 -97.5 -81t-97.5 -69h-258v29q39 37 87.5 89t94.5 107.5t76 102.5h393z" />
    <glyph glyph-name="idieresis" unicode="&#xef;" horiz-adv-x="666" 
d="M528 0h-391v1133h391v-1133zM-78 1413q0 82 49 120t121 38q69 0 120.5 -38t51.5 -120q0 -79 -51.5 -117.5t-120.5 -38.5q-72 0 -121 38.5t-49 117.5zM401 1413q0 82 49.5 120t122.5 38q70 0 121.5 -38t51.5 -120q0 -79 -51.5 -117.5t-121.5 -38.5q-73 0 -122.5 38.5
t-49.5 117.5z" />
    <glyph glyph-name="eth" unicode="&#xf0;" horiz-adv-x="1313" 
d="M479 1573q80 -34 145.5 -66t120.5 -69l209 137l115 -182l-145 -97q96 -94 161.5 -198.5t98.5 -231t33 -286.5q0 -185 -70 -320t-197.5 -207.5t-300.5 -72.5q-163 0 -289.5 59t-199 174.5t-72.5 284.5t63 284t171.5 173.5t244.5 58.5q67 0 115 -9.5t80 -28t49 -46.5l8 4
q-29 56 -61.5 107t-81.5 100l-182 -119l-117 184l143 92q-31 20 -71 45t-78 48zM653 733q-61 0 -97 -24.5t-51.5 -76t-15.5 -132.5q0 -73 16 -127.5t52 -84.5t96 -30q91 0 127.5 71t36.5 216q0 35 -10 68.5t-30 60.5t-51 43t-73 16z" />
    <glyph glyph-name="ntilde" unicode="&#xf1;" horiz-adv-x="1372" 
d="M844 1153q175 0 286 -99t111 -317v-737h-391v618q0 113 -32.5 170.5t-104.5 57.5q-111 0 -149 -90.5t-38 -259.5v-496h-391v1133h295l53 -150h15q36 54 86 92t115 58t145 20zM262 1237q6 94 25.5 159t51 105.5t76 59t99.5 18.5q38 0 81 -14.5t87 -33.5t86.5 -33.5
t81.5 -14.5q18 0 39.5 17t31.5 81h183q-13 -184 -80.5 -263t-165.5 -79q-45 0 -90.5 14.5t-89.5 33.5t-85 33.5t-79 14.5q-19 0 -39 -16t-33 -82h-180z" />
    <glyph glyph-name="ograve" unicode="&#xf2;" horiz-adv-x="1305" 
d="M1217 569q0 -142 -39 -252t-113 -185t-179 -113.5t-237 -38.5q-123 0 -225.5 38.5t-178.5 113.5t-117.5 185t-41.5 252q0 188 68.5 318t196 198t304.5 68q163 0 290 -68t199.5 -198t72.5 -318zM483 569q0 -97 17 -163.5t54.5 -101t98.5 -34.5t97 34.5t52.5 101
t16.5 163.5t-16.5 162t-53 98t-98.5 33q-89 0 -128.5 -74t-39.5 -219zM651 1569q35 -46 83.5 -101t97 -107.5t81.5 -90.5v-29h-260q-42 26 -100 66t-121 84.5t-118.5 86t-92.5 70.5v21h430z" />
    <glyph glyph-name="oacute" unicode="&#xf3;" horiz-adv-x="1305" 
d="M1217 569q0 -142 -39 -252t-113 -185t-179 -113.5t-237 -38.5q-123 0 -225.5 38.5t-178.5 113.5t-117.5 185t-41.5 252q0 188 68.5 318t196 198t304.5 68q163 0 290 -68t199.5 -198t72.5 -318zM483 569q0 -97 17 -163.5t54.5 -101t98.5 -34.5t97 34.5t52.5 101
t16.5 163.5t-16.5 162t-53 98t-98.5 33q-89 0 -128.5 -74t-39.5 -219zM1141 1569v-21q-36 -29 -92 -70.5t-118.5 -86t-121 -84.5t-100.5 -66h-260v29q35 38 84 90.5t98 107.5t82 101h428z" />
    <glyph glyph-name="ocircumflex" unicode="&#xf4;" horiz-adv-x="1305" 
d="M1217 569q0 -142 -39 -252t-113 -185t-179 -113.5t-237 -38.5q-123 0 -225.5 38.5t-178.5 113.5t-117.5 185t-41.5 252q0 188 68.5 318t196 198t304.5 68q163 0 290 -68t199.5 -198t72.5 -318zM483 569q0 -97 17 -163.5t54.5 -101t98.5 -34.5t97 34.5t52.5 101
t16.5 163.5t-16.5 162t-53 98t-98.5 33q-89 0 -128.5 -74t-39.5 -219zM854 1569q32 -47 79 -103.5t95 -108.5t82 -87v-29h-254q-53 31 -100 67.5t-100 82.5q-54 -46 -97.5 -81t-97.5 -69h-258v29q39 37 87.5 89t94.5 107.5t76 102.5h393z" />
    <glyph glyph-name="otilde" unicode="&#xf5;" horiz-adv-x="1305" 
d="M1217 569q0 -142 -39 -252t-113 -185t-179 -113.5t-237 -38.5q-123 0 -225.5 38.5t-178.5 113.5t-117.5 185t-41.5 252q0 188 68.5 318t196 198t304.5 68q163 0 290 -68t199.5 -198t72.5 -318zM483 569q0 -97 17 -163.5t54.5 -101t98.5 -34.5t97 34.5t52.5 101
t16.5 163.5t-16.5 162t-53 98t-98.5 33q-89 0 -128.5 -74t-39.5 -219zM229 1237q6 94 25.5 159t51 105.5t76 59t99.5 18.5q38 0 81 -14.5t87 -33.5t86.5 -33.5t81.5 -14.5q18 0 39.5 17t31.5 81h183q-13 -184 -80.5 -263t-165.5 -79q-45 0 -90.5 14.5t-89.5 33.5t-85 33.5
t-79 14.5q-19 0 -39 -16t-33 -82h-180z" />
    <glyph glyph-name="odieresis" unicode="&#xf6;" horiz-adv-x="1305" 
d="M1217 569q0 -142 -39 -252t-113 -185t-179 -113.5t-237 -38.5q-123 0 -225.5 38.5t-178.5 113.5t-117.5 185t-41.5 252q0 188 68.5 318t196 198t304.5 68q163 0 290 -68t199.5 -198t72.5 -318zM483 569q0 -97 17 -163.5t54.5 -101t98.5 -34.5t97 34.5t52.5 101
t16.5 163.5t-16.5 162t-53 98t-98.5 33q-89 0 -128.5 -74t-39.5 -219zM241 1413q0 82 49 120t121 38q69 0 120.5 -38t51.5 -120q0 -79 -51.5 -117.5t-120.5 -38.5q-72 0 -121 38.5t-49 117.5zM720 1413q0 82 49.5 120t122.5 38q70 0 121.5 -38t51.5 -120q0 -79 -51.5 -117.5
t-121.5 -38.5q-73 0 -122.5 38.5t-49.5 117.5z" />
    <glyph glyph-name="divide" unicode="&#xf7;" horiz-adv-x="1200" 
d="M92 588v268h1014v-268h-1014zM598 162q-63 0 -109.5 40.5t-46.5 129.5q0 95 46.5 132.5t109.5 37.5q62 0 110 -37.5t48 -132.5q0 -89 -48 -129.5t-110 -40.5zM598 942q-63 0 -109.5 40.5t-46.5 129.5q0 95 46.5 132.5t109.5 37.5q62 0 110 -37.5t48 -132.5
q0 -89 -48 -129.5t-110 -40.5z" />
    <glyph glyph-name="oslash" unicode="&#xf8;" horiz-adv-x="1362" 
d="M1274 569q0 -189 -71.5 -320.5t-205 -200t-319.5 -68.5q-61 0 -119 9t-110 25l-84 -131l-170 107l79 123q-88 75 -138 190t-50 266q0 281 159 432.5t439 151.5q63 0 122.5 -10t111.5 -29l71 111l168 -105l-67 -104q86 -73 135 -186t49 -261zM461 569q0 -43 2.5 -79
t9.5 -68l289 448q-19 7 -39 10t-43 3q-121 0 -170 -79.5t-49 -234.5zM899 569q0 37 -2 70.5t-8 60.5l-283 -442q17 -4 35.5 -6t40.5 -2q83 0 130.5 36t67 107.5t19.5 175.5z" />
    <glyph glyph-name="ugrave" unicode="&#xf9;" horiz-adv-x="1372" 
d="M1237 1133v-1133h-295l-49 141h-23q-35 -57 -88.5 -92.5t-118.5 -52t-135 -16.5q-111 0 -200.5 43t-142 135t-52.5 237v738h391v-619q0 -110 31.5 -167.5t103.5 -57.5q74 0 114.5 40t56.5 118t16 190v496h391zM684 1569q35 -46 83.5 -101t97 -107.5t81.5 -90.5v-29h-260
q-42 26 -100 66t-121 84.5t-118.5 86t-92.5 70.5v21h430z" />
    <glyph glyph-name="uacute" unicode="&#xfa;" horiz-adv-x="1372" 
d="M1237 1133v-1133h-295l-49 141h-23q-35 -57 -88.5 -92.5t-118.5 -52t-135 -16.5q-111 0 -200.5 43t-142 135t-52.5 237v738h391v-619q0 -110 31.5 -167.5t103.5 -57.5q74 0 114.5 40t56.5 118t16 190v496h391zM1173 1569v-21q-36 -29 -92 -70.5t-118.5 -86t-121 -84.5
t-100.5 -66h-260v29q35 38 84 90.5t98 107.5t82 101h428z" />
    <glyph glyph-name="ucircumflex" unicode="&#xfb;" horiz-adv-x="1372" 
d="M1237 1133v-1133h-295l-49 141h-23q-35 -57 -88.5 -92.5t-118.5 -52t-135 -16.5q-111 0 -200.5 43t-142 135t-52.5 237v738h391v-619q0 -110 31.5 -167.5t103.5 -57.5q74 0 114.5 40t56.5 118t16 190v496h391zM887 1569q32 -47 79 -103.5t95 -108.5t82 -87v-29h-254
q-53 31 -100 67.5t-100 82.5q-54 -46 -97.5 -81t-97.5 -69h-258v29q39 37 87.5 89t94.5 107.5t76 102.5h393z" />
    <glyph glyph-name="udieresis" unicode="&#xfc;" horiz-adv-x="1372" 
d="M1237 1133v-1133h-295l-49 141h-23q-35 -57 -88.5 -92.5t-118.5 -52t-135 -16.5q-111 0 -200.5 43t-142 135t-52.5 237v738h391v-619q0 -110 31.5 -167.5t103.5 -57.5q74 0 114.5 40t56.5 118t16 190v496h391zM274 1413q0 82 49 120t121 38q69 0 120.5 -38t51.5 -120
q0 -79 -51.5 -117.5t-120.5 -38.5q-72 0 -121 38.5t-49 117.5zM753 1413q0 82 49.5 120t122.5 38q70 0 121.5 -38t51.5 -120q0 -79 -51.5 -117.5t-121.5 -38.5q-73 0 -122.5 38.5t-49.5 117.5z" />
    <glyph glyph-name="yacute" unicode="&#xfd;" horiz-adv-x="1249" 
d="M-2 1133h412l192 -650q4 -14 8 -34.5t7 -43.5t4 -45h8q5 41 11.5 71.5t12.5 49.5l197 652h399l-448 -1205q-52 -138 -120.5 -231.5t-169 -141t-249.5 -47.5q-54 0 -92.5 5.5t-67.5 11.5v307q22 -4 54 -8t67 -4q65 0 105.5 26t66.5 68.5t45 91.5l4 10zM1112 1569v-21
q-36 -29 -92 -70.5t-118.5 -86t-121 -84.5t-100.5 -66h-260v29q35 38 84 90.5t98 107.5t82 101h428z" />
    <glyph glyph-name="thorn" unicode="&#xfe;" horiz-adv-x="1317" 
d="M1229 569q0 -193 -54 -324.5t-148 -198t-214 -66.5q-70 0 -124 18.5t-94 48t-69 62.5h-14q4 -20 7 -47.5t5 -55t2 -49.5v-449h-391v2048h391v-344q0 -82 -6 -138t-12 -87h18q26 46 68 83.5t100.5 60t132.5 22.5q177 0 289.5 -148.5t112.5 -435.5zM831 573
q0 134 -33 203.5t-116 69.5q-85 0 -119 -61.5t-37 -184.5v-29q0 -135 35.5 -205.5t126.5 -70.5q54 0 85 31.5t44.5 93.5t13.5 153z" />
    <glyph glyph-name="ydieresis" unicode="&#xff;" horiz-adv-x="1249" 
d="M-2 1133h412l192 -650q4 -14 8 -34.5t7 -43.5t4 -45h8q5 41 11.5 71.5t12.5 49.5l197 652h399l-448 -1205q-52 -138 -120.5 -231.5t-169 -141t-249.5 -47.5q-54 0 -92.5 5.5t-67.5 11.5v307q22 -4 54 -8t67 -4q65 0 105.5 26t66.5 68.5t45 91.5l4 10zM213 1413
q0 82 49 120t121 38q69 0 120.5 -38t51.5 -120q0 -79 -51.5 -117.5t-120.5 -38.5q-72 0 -121 38.5t-49 117.5zM692 1413q0 82 49.5 120t122.5 38q70 0 121.5 -38t51.5 -120q0 -79 -51.5 -117.5t-121.5 -38.5q-73 0 -122.5 38.5t-49.5 117.5z" />
    <glyph glyph-name="Amacron" unicode="&#x100;" horiz-adv-x="1487" 
d="M1055 0l-72 274h-475l-74 -274h-434l477 1468h527l483 -1468h-432zM901 598l-63 240q-10 39 -29 111.5t-37.5 150t-28.5 127.5q-9 -50 -25.5 -123.5t-34 -145.5t-30.5 -120l-63 -240h311zM1114 1807v-236h-727v236h727z" />
    <glyph glyph-name="amacron" unicode="&#x101;" horiz-adv-x="1276" 
d="M688 1153q215 0 336 -106.5t121 -303.5v-743h-271l-75 150h-8q-48 -60 -98.5 -97.5t-115.5 -55t-159 -17.5q-98 0 -176 40t-123 121t-45 205q0 182 126 270t365 99l189 6v16q0 76 -37.5 108t-100.5 32q-67 0 -149.5 -23.5t-165.5 -60.5l-113 258q98 50 222 76t278 26z
M756 506l-90 -4q-108 -4 -151.5 -37.5t-43.5 -95.5q0 -58 31 -85.5t82 -27.5q71 0 121.5 45t50.5 117v88zM1010 1477v-236h-727v236h727z" />
    <glyph glyph-name="Abreve" unicode="&#x102;" horiz-adv-x="1487" 
d="M1055 0l-72 274h-475l-74 -274h-434l477 1468h527l483 -1468h-432zM901 598l-63 240q-10 39 -29 111.5t-37.5 150t-28.5 127.5q-9 -50 -25.5 -123.5t-34 -145.5t-30.5 -120l-63 -240h311zM1153 1942q-7 -111 -56.5 -194.5t-138.5 -130t-213 -46.5q-195 0 -294 99.5
t-107 271.5h211q15 -57 37.5 -85t59.5 -37t93 -9q44 0 81.5 10.5t65.5 39t42 81.5h219z" />
    <glyph glyph-name="abreve" unicode="&#x103;" horiz-adv-x="1276" 
d="M688 1153q215 0 336 -106.5t121 -303.5v-743h-271l-75 150h-8q-48 -60 -98.5 -97.5t-115.5 -55t-159 -17.5q-98 0 -176 40t-123 121t-45 205q0 182 126 270t365 99l189 6v16q0 76 -37.5 108t-100.5 32q-67 0 -149.5 -23.5t-165.5 -60.5l-113 258q98 50 222 76t278 26z
M756 506l-90 -4q-108 -4 -151.5 -37.5t-43.5 -95.5q0 -58 31 -85.5t82 -27.5q71 0 121.5 45t50.5 117v88zM1049 1612q-7 -111 -56.5 -194.5t-138.5 -130t-213 -46.5q-195 0 -294 99.5t-107 271.5h211q15 -57 37.5 -85t59.5 -37t93 -9q44 0 81.5 10.5t65.5 39t42 81.5h219z
" />
    <glyph glyph-name="Aogonek" unicode="&#x104;" horiz-adv-x="1487" 
d="M1055 0l-72 274h-475l-74 -274h-434l477 1468h527l483 -1468h-432zM901 598l-63 240q-10 39 -29 111.5t-37.5 150t-28.5 127.5q-9 -50 -25.5 -123.5t-34 -145.5t-30.5 -120l-63 -240h311zM1256 -199q0 -37 21.5 -52t56.5 -15q26 0 61.5 6.5t56.5 15.5v-221
q-34 -10 -76 -18.5t-98 -8.5q-116 0 -196 62.5t-80 169.5q0 46 20.5 94.5t71 102t141.5 114.5l154 -51q-69 -66 -101 -109t-32 -90z" />
    <glyph glyph-name="aogonek" unicode="&#x105;" horiz-adv-x="1276" 
d="M688 1153q215 0 336 -106.5t121 -303.5v-743h-271l-75 150h-8q-48 -60 -98.5 -97.5t-115.5 -55t-159 -17.5q-98 0 -176 40t-123 121t-45 205q0 182 126 270t365 99l189 6v16q0 76 -37.5 108t-100.5 32q-67 0 -149.5 -23.5t-165.5 -60.5l-113 258q98 50 222 76t278 26z
M756 506l-90 -4q-108 -4 -151.5 -37.5t-43.5 -95.5q0 -58 31 -85.5t82 -27.5q71 0 121.5 45t50.5 117v88zM954 -199q0 -37 21.5 -52t56.5 -15q26 0 61.5 6.5t56.5 15.5v-221q-34 -10 -76 -18.5t-98 -8.5q-116 0 -196 62.5t-80 169.5q0 46 20.5 94.5t71 102t141.5 114.5
l154 -51q-69 -66 -101 -109t-32 -90z" />
    <glyph glyph-name="Cacute" unicode="&#x106;" horiz-adv-x="1329" 
d="M809 1159q-70 0 -125 -29.5t-94 -85.5t-59.5 -136.5t-20.5 -182.5q0 -138 35 -232t106.5 -142t179.5 -48q98 0 188.5 27t182.5 65v-334q-97 -43 -198.5 -62t-215.5 -19q-238 0 -389.5 94.5t-223 262.5t-71.5 390q0 166 46.5 304t136.5 239.5t222.5 157t303.5 55.5
q106 0 223.5 -24.5t229.5 -78.5l-121 -311q-80 38 -162 64t-174 26zM1235 1899v-21q-36 -29 -92 -70.5t-118.5 -86t-121 -84.5t-100.5 -66h-260v29q35 38 84 90.5t98 107.5t82 101h428z" />
    <glyph glyph-name="cacute" unicode="&#x107;" horiz-adv-x="1104" 
d="M651 -20q-172 0 -299 61.5t-196.5 190t-69.5 329.5q0 206 77.5 337t212.5 193t306 62q104 0 197.5 -23t173.5 -63l-115 -289q-70 31 -130.5 49.5t-125.5 18.5q-59 0 -104 -31t-70 -93.5t-25 -158.5q0 -98 25.5 -158t71 -87t104.5 -27q85 0 169.5 26.5t160.5 73.5v-311
q-70 -46 -158 -73t-205 -27zM1087 1569v-21q-36 -29 -92 -70.5t-118.5 -86t-121 -84.5t-100.5 -66h-260v29q35 38 84 90.5t98 107.5t82 101h428z" />
    <glyph glyph-name="Ccircumflex" unicode="&#x108;" horiz-adv-x="1329" 
d="M809 1159q-70 0 -125 -29.5t-94 -85.5t-59.5 -136.5t-20.5 -182.5q0 -138 35 -232t106.5 -142t179.5 -48q98 0 188.5 27t182.5 65v-334q-97 -43 -198.5 -62t-215.5 -19q-238 0 -389.5 94.5t-223 262.5t-71.5 390q0 166 46.5 304t136.5 239.5t222.5 157t303.5 55.5
q106 0 223.5 -24.5t229.5 -78.5l-121 -311q-80 38 -162 64t-174 26zM948 1899q32 -47 79 -103.5t95 -108.5t82 -87v-29h-254q-53 31 -100 67.5t-100 82.5q-54 -46 -97.5 -81t-97.5 -69h-258v29q39 37 87.5 89t94.5 107.5t76 102.5h393z" />
    <glyph glyph-name="ccircumflex" unicode="&#x109;" horiz-adv-x="1104" 
d="M651 -20q-172 0 -299 61.5t-196.5 190t-69.5 329.5q0 206 77.5 337t212.5 193t306 62q104 0 197.5 -23t173.5 -63l-115 -289q-70 31 -130.5 49.5t-125.5 18.5q-59 0 -104 -31t-70 -93.5t-25 -158.5q0 -98 25.5 -158t71 -87t104.5 -27q85 0 169.5 26.5t160.5 73.5v-311
q-70 -46 -158 -73t-205 -27zM801 1569q32 -47 79 -103.5t95 -108.5t82 -87v-29h-254q-53 31 -100 67.5t-100 82.5q-54 -46 -97.5 -81t-97.5 -69h-258v29q39 37 87.5 89t94.5 107.5t76 102.5h393z" />
    <glyph glyph-name="Cdot" unicode="&#x10a;" horiz-adv-x="1329" 
d="M809 1159q-70 0 -125 -29.5t-94 -85.5t-59.5 -136.5t-20.5 -182.5q0 -138 35 -232t106.5 -142t179.5 -48q98 0 188.5 27t182.5 65v-334q-97 -43 -198.5 -62t-215.5 -19q-238 0 -389.5 94.5t-223 262.5t-71.5 390q0 166 46.5 304t136.5 239.5t222.5 157t303.5 55.5
q106 0 223.5 -24.5t229.5 -78.5l-121 -311q-80 38 -162 64t-174 26zM750 1919q84 0 146.5 -35t62.5 -139q0 -101 -62.5 -136.5t-146.5 -35.5q-86 0 -146.5 35.5t-60.5 136.5q0 104 60.5 139t146.5 35z" />
    <glyph glyph-name="cdot" unicode="&#x10b;" horiz-adv-x="1104" 
d="M651 -20q-172 0 -299 61.5t-196.5 190t-69.5 329.5q0 206 77.5 337t212.5 193t306 62q104 0 197.5 -23t173.5 -63l-115 -289q-70 31 -130.5 49.5t-125.5 18.5q-59 0 -104 -31t-70 -93.5t-25 -158.5q0 -98 25.5 -158t71 -87t104.5 -27q85 0 169.5 26.5t160.5 73.5v-311
q-70 -46 -158 -73t-205 -27zM602 1589q84 0 146.5 -35t62.5 -139q0 -101 -62.5 -136.5t-146.5 -35.5q-86 0 -146.5 35.5t-60.5 136.5q0 104 60.5 139t146.5 35z" />
    <glyph glyph-name="Ccaron" unicode="&#x10c;" horiz-adv-x="1329" 
d="M809 1159q-70 0 -125 -29.5t-94 -85.5t-59.5 -136.5t-20.5 -182.5q0 -138 35 -232t106.5 -142t179.5 -48q98 0 188.5 27t182.5 65v-334q-97 -43 -198.5 -62t-215.5 -19q-238 0 -389.5 94.5t-223 262.5t-71.5 390q0 166 46.5 304t136.5 239.5t222.5 157t303.5 55.5
q106 0 223.5 -24.5t229.5 -78.5l-121 -311q-80 38 -162 64t-174 26zM555 1571q-30 47 -76 102.5t-94.5 107.5t-87.5 89v29h258q54 -34 97.5 -68.5t97.5 -81.5q53 47 100 83t100 67h254v-29q-34 -35 -82 -87t-95 -108.5t-79 -103.5h-393z" />
    <glyph glyph-name="ccaron" unicode="&#x10d;" horiz-adv-x="1104" 
d="M651 -20q-172 0 -299 61.5t-196.5 190t-69.5 329.5q0 206 77.5 337t212.5 193t306 62q104 0 197.5 -23t173.5 -63l-115 -289q-70 31 -130.5 49.5t-125.5 18.5q-59 0 -104 -31t-70 -93.5t-25 -158.5q0 -98 25.5 -158t71 -87t104.5 -27q85 0 169.5 26.5t160.5 73.5v-311
q-70 -46 -158 -73t-205 -27zM408 1241q-30 47 -76 102.5t-94.5 107.5t-87.5 89v29h258q54 -34 97.5 -68.5t97.5 -81.5q53 47 100 83t100 67h254v-29q-34 -35 -82 -87t-95 -108.5t-79 -103.5h-393z" />
    <glyph glyph-name="Dcaron" unicode="&#x10e;" horiz-adv-x="1503" 
d="M1399 762q0 -255 -95 -424t-267.5 -253.5t-405.5 -84.5h-473v1462h506q236 0 400 -81t249.5 -237t85.5 -382zM989 748q0 133 -35.5 220.5t-106.5 131t-179 43.5h-115v-819h88q180 0 264 104.5t84 319.5zM559 1571q-30 47 -76 102.5t-94.5 107.5t-87.5 89v29h258
q54 -34 97.5 -68.5t97.5 -81.5q53 47 100 83t100 67h254v-29q-34 -35 -82 -87t-95 -108.5t-79 -103.5h-393z" />
    <glyph glyph-name="dcaron" unicode="&#x10f;" horiz-adv-x="1317" 
d="M487 -20q-175 0 -288 149t-113 436q0 290 116 439t300 149q76 0 131 -22t95.5 -59.5t70.5 -84.5h8q-7 43 -13 118.5t-6 147.5v303h394v-1556h-295l-84 143h-15q-27 -45 -67.5 -82t-98 -59t-135.5 -22zM647 289q94 0 132.5 59.5t41.5 181.5v31q0 134 -37.5 205.5
t-140.5 71.5q-70 0 -116 -68t-46 -211q0 -141 46.5 -205.5t119.5 -64.5zM1668 1556v-22q-29 -50 -55.5 -97t-56 -97t-67.5 -111h-233v28q8 30 16 68t16 78.5t14.5 80t10.5 72.5h355z" />
    <glyph glyph-name="Dcroat" unicode="&#x110;" horiz-adv-x="1503" 
d="M664 1462q236 0 400 -81t249.5 -237t85.5 -382q0 -255 -95 -424t-267.5 -253.5t-405.5 -84.5h-473v563h-127v320h127v579h506zM668 1143h-115v-260h211v-320h-211v-239h88q180 0 264 104.5t84 319.5q0 133 -35.5 220.5t-106.5 131t-179 43.5z" />
    <glyph glyph-name="dcroat" unicode="&#x111;" horiz-adv-x="1358" 
d="M471 -20q-167 0 -276 136.5t-109 397.5q0 277 119 408t303 131q77 0 134 -22t98.5 -59t70.5 -83h8q-6 25 -18.5 100.5t-12.5 167.5v10h-231v242h231v147h394v-147h155v-242h-155v-1167h-320l-88 143h-14q-29 -45 -68.5 -82t-93.5 -59t-127 -22zM668 289q84 0 117 49
t36 149v25q0 109 -43.5 167t-115.5 58q-61 0 -102.5 -49.5t-41.5 -177.5q0 -86 35.5 -153.5t114.5 -67.5z" />
    <glyph glyph-name="Emacron" unicode="&#x112;" horiz-adv-x="1124" 
d="M1026 0h-868v1462h868v-317h-473v-230h438v-317h-438v-276h473v-322zM963 1807v-236h-727v236h727z" />
    <glyph glyph-name="emacron" unicode="&#x113;" horiz-adv-x="1266" 
d="M645 1153q165 0 285 -57.5t185 -172.5t65 -288v-174h-699q5 -89 66.5 -146t181.5 -57q106 0 194.5 21t182.5 65v-281q-82 -43 -179 -63t-245 -20q-171 0 -306 61t-212.5 189t-77.5 329q0 204 70 335.5t196 195t293 63.5zM659 887q-69 0 -115.5 -43.5t-54.5 -136.5h336
q-1 50 -20 91t-55.5 65t-90.5 24zM1004 1477v-236h-727v236h727z" />
    <glyph glyph-name="Ebreve" unicode="&#x114;" horiz-adv-x="1124" 
d="M1026 0h-868v1462h868v-317h-473v-230h438v-317h-438v-276h473v-322zM1002 1942q-7 -111 -56.5 -194.5t-138.5 -130t-213 -46.5q-195 0 -294 99.5t-107 271.5h211q15 -57 37.5 -85t59.5 -37t93 -9q44 0 81.5 10.5t65.5 39t42 81.5h219z" />
    <glyph glyph-name="ebreve" unicode="&#x115;" horiz-adv-x="1266" 
d="M645 1153q165 0 285 -57.5t185 -172.5t65 -288v-174h-699q5 -89 66.5 -146t181.5 -57q106 0 194.5 21t182.5 65v-281q-82 -43 -179 -63t-245 -20q-171 0 -306 61t-212.5 189t-77.5 329q0 204 70 335.5t196 195t293 63.5zM659 887q-69 0 -115.5 -43.5t-54.5 -136.5h336
q-1 50 -20 91t-55.5 65t-90.5 24zM1043 1612q-7 -111 -56.5 -194.5t-138.5 -130t-213 -46.5q-195 0 -294 99.5t-107 271.5h211q15 -57 37.5 -85t59.5 -37t93 -9q44 0 81.5 10.5t65.5 39t42 81.5h219z" />
    <glyph glyph-name="Edotaccent" unicode="&#x116;" horiz-adv-x="1124" 
d="M1026 0h-868v1462h868v-317h-473v-230h438v-317h-438v-276h473v-322zM594 1919q84 0 146.5 -35t62.5 -139q0 -101 -62.5 -136.5t-146.5 -35.5q-86 0 -146.5 35.5t-60.5 136.5q0 104 60.5 139t146.5 35z" />
    <glyph glyph-name="edotaccent" unicode="&#x117;" horiz-adv-x="1266" 
d="M645 1153q165 0 285 -57.5t185 -172.5t65 -288v-174h-699q5 -89 66.5 -146t181.5 -57q106 0 194.5 21t182.5 65v-281q-82 -43 -179 -63t-245 -20q-171 0 -306 61t-212.5 189t-77.5 329q0 204 70 335.5t196 195t293 63.5zM659 887q-69 0 -115.5 -43.5t-54.5 -136.5h336
q-1 50 -20 91t-55.5 65t-90.5 24zM635 1589q84 0 146.5 -35t62.5 -139q0 -101 -62.5 -136.5t-146.5 -35.5q-86 0 -146.5 35.5t-60.5 136.5q0 104 60.5 139t146.5 35z" />
    <glyph glyph-name="Eogonek" unicode="&#x118;" horiz-adv-x="1124" 
d="M1026 0h-868v1462h868v-317h-473v-230h438v-317h-438v-276h473v-322zM834 -199q0 -37 21.5 -52t56.5 -15q26 0 61.5 6.5t56.5 15.5v-221q-34 -10 -76 -18.5t-98 -8.5q-116 0 -196 62.5t-80 169.5q0 46 20.5 94.5t71 102t141.5 114.5l154 -51q-69 -66 -101 -109t-32 -90z
" />
    <glyph glyph-name="eogonek" unicode="&#x119;" horiz-adv-x="1266" 
d="M915 -186q0 -39 24.5 -59.5t59.5 -20.5q31 0 61 6.5t52 15.5v-221q-34 -10 -76 -18.5t-98 -8.5q-117 0 -196.5 62.5t-79.5 169.5q0 46 20.5 94.5t71 102t141.5 114.5l211 12q-83 -70 -124 -114.5t-54 -74.5t-13 -60zM645 1153q165 0 285 -57.5t185 -172.5t65 -288v-174
h-699q5 -89 66.5 -146t181.5 -57q106 0 194.5 21t182.5 65v-281q-82 -43 -179 -63t-245 -20q-171 0 -306 61t-212.5 189t-77.5 329q0 204 70 335.5t196 195t293 63.5zM659 887q-69 0 -115.5 -43.5t-54.5 -136.5h336q-1 50 -20 91t-55.5 65t-90.5 24z" />
    <glyph glyph-name="Ecaron" unicode="&#x11a;" horiz-adv-x="1124" 
d="M1026 0h-868v1462h868v-317h-473v-230h438v-317h-438v-276h473v-322zM399 1571q-30 47 -76 102.5t-94.5 107.5t-87.5 89v29h258q54 -34 97.5 -68.5t97.5 -81.5q53 47 100 83t100 67h254v-29q-34 -35 -82 -87t-95 -108.5t-79 -103.5h-393z" />
    <glyph glyph-name="ecaron" unicode="&#x11b;" horiz-adv-x="1266" 
d="M645 1153q165 0 285 -57.5t185 -172.5t65 -288v-174h-699q5 -89 66.5 -146t181.5 -57q106 0 194.5 21t182.5 65v-281q-82 -43 -179 -63t-245 -20q-171 0 -306 61t-212.5 189t-77.5 329q0 204 70 335.5t196 195t293 63.5zM659 887q-69 0 -115.5 -43.5t-54.5 -136.5h336
q-1 50 -20 91t-55.5 65t-90.5 24zM440 1241q-30 47 -76 102.5t-94.5 107.5t-87.5 89v29h258q54 -34 97.5 -68.5t97.5 -81.5q53 47 100 83t100 67h254v-29q-34 -35 -82 -87t-95 -108.5t-79 -103.5h-393z" />
    <glyph glyph-name="Gcircumflex" unicode="&#x11c;" horiz-adv-x="1516" 
d="M745 856h631v-788q-113 -39 -259 -63.5t-306 -24.5q-211 0 -370 82t-248 249.5t-89 423.5q0 230 88 397.5t259.5 259t420.5 91.5q137 0 260 -26t214 -66l-125 -310q-79 39 -164 58.5t-183 19.5q-131 0 -210.5 -59t-115.5 -157.5t-36 -217.5q0 -136 38.5 -229.5t113 -142
t180.5 -48.5q35 0 85.5 5t76.5 12v229h-261v305zM1022 1899q32 -47 79 -103.5t95 -108.5t82 -87v-29h-254q-53 31 -100 67.5t-100 82.5q-54 -46 -97.5 -81t-97.5 -69h-258v29q39 37 87.5 89t94.5 107.5t76 102.5h393z" />
    <glyph glyph-name="gcircumflex" unicode="&#x11d;" horiz-adv-x="1241" 
d="M522 -492q-241 0 -371.5 80.5t-130.5 231.5q0 101 63 167t189 95q-52 22 -90.5 71t-38.5 97q0 53 29 93.5t121 96.5q-88 39 -138.5 122t-50.5 202q0 123 56.5 210t165 133t264.5 46q21 0 64 -3.5t87 -8t68 -8.5h395v-189l-155 -57q16 -29 24 -63t8 -72
q0 -183 -128.5 -284t-383.5 -101q-63 0 -100 8q-7 -13 -10.5 -25.5t-3.5 -23.5q0 -23 27.5 -36.5t67 -18.5t75.5 -5h188q191 0 286 -80t95 -241q0 -207 -176.5 -322t-495.5 -115zM541 -248q71 0 143 12.5t121 40.5t49 74q0 35 -29 52.5t-75 23.5t-97 6h-152
q-42 0 -76.5 -13.5t-54.5 -36.5t-20 -52q0 -48 52 -77.5t139 -29.5zM594 588q56 0 86.5 43t30.5 129q0 88 -29 132t-88 44q-61 0 -91 -43.5t-30 -130.5t30 -130.5t91 -43.5zM791 1569q32 -47 79 -103.5t95 -108.5t82 -87v-29h-254q-53 31 -100 67.5t-100 82.5
q-54 -46 -97.5 -81t-97.5 -69h-258v29q39 37 87.5 89t94.5 107.5t76 102.5h393z" />
    <glyph glyph-name="Gbreve" unicode="&#x11e;" horiz-adv-x="1516" 
d="M745 856h631v-788q-113 -39 -259 -63.5t-306 -24.5q-211 0 -370 82t-248 249.5t-89 423.5q0 230 88 397.5t259.5 259t420.5 91.5q137 0 260 -26t214 -66l-125 -310q-79 39 -164 58.5t-183 19.5q-131 0 -210.5 -59t-115.5 -157.5t-36 -217.5q0 -136 38.5 -229.5t113 -142
t180.5 -48.5q35 0 85.5 5t76.5 12v229h-261v305zM1231 1942q-7 -111 -56.5 -194.5t-138.5 -130t-213 -46.5q-195 0 -294 99.5t-107 271.5h211q15 -57 37.5 -85t59.5 -37t93 -9q44 0 81.5 10.5t65.5 39t42 81.5h219z" />
    <glyph glyph-name="gbreve" unicode="&#x11f;" horiz-adv-x="1241" 
d="M522 -492q-241 0 -371.5 80.5t-130.5 231.5q0 101 63 167t189 95q-52 22 -90.5 71t-38.5 97q0 53 29 93.5t121 96.5q-88 39 -138.5 122t-50.5 202q0 123 56.5 210t165 133t264.5 46q21 0 64 -3.5t87 -8t68 -8.5h395v-189l-155 -57q16 -29 24 -63t8 -72
q0 -183 -128.5 -284t-383.5 -101q-63 0 -100 8q-7 -13 -10.5 -25.5t-3.5 -23.5q0 -23 27.5 -36.5t67 -18.5t75.5 -5h188q191 0 286 -80t95 -241q0 -207 -176.5 -322t-495.5 -115zM541 -248q71 0 143 12.5t121 40.5t49 74q0 35 -29 52.5t-75 23.5t-97 6h-152
q-42 0 -76.5 -13.5t-54.5 -36.5t-20 -52q0 -48 52 -77.5t139 -29.5zM594 588q56 0 86.5 43t30.5 129q0 88 -29 132t-88 44q-61 0 -91 -43.5t-30 -130.5t30 -130.5t91 -43.5zM997 1612q-7 -111 -56.5 -194.5t-138.5 -130t-213 -46.5q-195 0 -294 99.5t-107 271.5h211
q15 -57 37.5 -85t59.5 -37t93 -9q44 0 81.5 10.5t65.5 39t42 81.5h219z" />
    <glyph glyph-name="Gdot" unicode="&#x120;" horiz-adv-x="1516" 
d="M745 856h631v-788q-113 -39 -259 -63.5t-306 -24.5q-211 0 -370 82t-248 249.5t-89 423.5q0 230 88 397.5t259.5 259t420.5 91.5q137 0 260 -26t214 -66l-125 -310q-79 39 -164 58.5t-183 19.5q-131 0 -210.5 -59t-115.5 -157.5t-36 -217.5q0 -136 38.5 -229.5t113 -142
t180.5 -48.5q35 0 85.5 5t76.5 12v229h-261v305zM824 1919q84 0 146.5 -35t62.5 -139q0 -101 -62.5 -136.5t-146.5 -35.5q-86 0 -146.5 35.5t-60.5 136.5q0 104 60.5 139t146.5 35z" />
    <glyph glyph-name="gdot" unicode="&#x121;" horiz-adv-x="1241" 
d="M522 -492q-241 0 -371.5 80.5t-130.5 231.5q0 101 63 167t189 95q-52 22 -90.5 71t-38.5 97q0 53 29 93.5t121 96.5q-88 39 -138.5 122t-50.5 202q0 123 56.5 210t165 133t264.5 46q21 0 64 -3.5t87 -8t68 -8.5h395v-189l-155 -57q16 -29 24 -63t8 -72
q0 -183 -128.5 -284t-383.5 -101q-63 0 -100 8q-7 -13 -10.5 -25.5t-3.5 -23.5q0 -23 27.5 -36.5t67 -18.5t75.5 -5h188q191 0 286 -80t95 -241q0 -207 -176.5 -322t-495.5 -115zM541 -248q71 0 143 12.5t121 40.5t49 74q0 35 -29 52.5t-75 23.5t-97 6h-152
q-42 0 -76.5 -13.5t-54.5 -36.5t-20 -52q0 -48 52 -77.5t139 -29.5zM594 588q56 0 86.5 43t30.5 129q0 88 -29 132t-88 44q-61 0 -91 -43.5t-30 -130.5t30 -130.5t91 -43.5zM593 1589q84 0 146.5 -35t62.5 -139q0 -101 -62.5 -136.5t-146.5 -35.5q-86 0 -146.5 35.5
t-60.5 136.5q0 104 60.5 139t146.5 35z" />
    <glyph glyph-name="uni0122" unicode="&#x122;" horiz-adv-x="1516" 
d="M745 856h631v-788q-113 -39 -259 -63.5t-306 -24.5q-211 0 -370 82t-248 249.5t-89 423.5q0 230 88 397.5t259.5 259t420.5 91.5q137 0 260 -26t214 -66l-125 -310q-79 39 -164 58.5t-183 19.5q-131 0 -210.5 -59t-115.5 -157.5t-36 -217.5q0 -136 38.5 -229.5t113 -142
t180.5 -48.5q35 0 85.5 5t76.5 12v229h-261v305zM977 -125v-22q-24 -55 -48 -104t-52.5 -97.5t-67.5 -104.5h-234v29q12 43 22 98t17 108.5t8 92.5h355z" />
    <glyph glyph-name="uni0123" unicode="&#x123;" horiz-adv-x="1241" 
d="M779 1558v-29q-8 -43 -17 -96t-16.5 -106t-11.5 -97h-357v23q29 50 55 97t54 97.5t61 110.5h232zM522 -492q-241 0 -371.5 80.5t-130.5 231.5q0 101 63 167t189 95q-52 22 -90.5 71t-38.5 97q0 53 29 93.5t121 96.5q-88 39 -138.5 122t-50.5 202q0 123 56.5 210t165 133
t264.5 46q21 0 64 -3.5t87 -8t68 -8.5h395v-189l-155 -57q16 -29 24 -63t8 -72q0 -183 -128.5 -284t-383.5 -101q-63 0 -100 8q-7 -13 -10.5 -25.5t-3.5 -23.5q0 -23 27.5 -36.5t67 -18.5t75.5 -5h188q191 0 286 -80t95 -241q0 -207 -176.5 -322t-495.5 -115zM541 -248
q71 0 143 12.5t121 40.5t49 74q0 35 -29 52.5t-75 23.5t-97 6h-152q-42 0 -76.5 -13.5t-54.5 -36.5t-20 -52q0 -48 52 -77.5t139 -29.5zM594 588q56 0 86.5 43t30.5 129q0 88 -29 132t-88 44q-61 0 -91 -43.5t-30 -130.5t30 -130.5t91 -43.5z" />
    <glyph glyph-name="Hcircumflex" unicode="&#x124;" horiz-adv-x="1569" 
d="M1411 0h-397v596h-459v-596h-397v1462h397v-542h459v542h397v-1462zM985 1899q32 -47 79 -103.5t95 -108.5t82 -87v-29h-254q-53 31 -100 67.5t-100 82.5q-54 -46 -97.5 -81t-97.5 -69h-258v29q39 37 87.5 89t94.5 107.5t76 102.5h393z" />
    <glyph glyph-name="hcircumflex" unicode="&#x125;" horiz-adv-x="1372" 
d="M526 1556v-221q0 -126 -5.5 -211.5t-10.5 -130.5h18q37 59 84 94t104 50.5t124 15.5q112 0 202.5 -43t144.5 -134.5t54 -238.5v-737h-393v618q0 113 -33 170.5t-102 57.5q-71 0 -112 -40.5t-58 -118t-17 -189.5v-498h-391v1556h391zM536 1993q32 -47 79 -103.5t95 -108.5
t82 -87v-29h-254q-53 31 -100 67.5t-100 82.5q-54 -46 -97.5 -81t-97.5 -69h-258v29q39 37 87.5 89t94.5 107.5t76 102.5h393z" />
    <glyph glyph-name="Hbar" unicode="&#x126;" horiz-adv-x="1602" 
d="M174 0v1067h-174v233h174v162h395v-162h461v162h397v-162h175v-233h-175v-1067h-397v596h-461v-596h-395zM569 920h461v147h-461v-147z" />
    <glyph glyph-name="hbar" unicode="&#x127;" horiz-adv-x="1393" 
d="M547 1556v-147h233v-242h-235v-41q0 -47 -5 -116.5t-10 -116.5h23q37 58 82.5 93t102 51t124.5 16q113 0 203.5 -43.5t143.5 -134.5t53 -236v-639h-394v518q0 113 -33 170t-102 57q-70 0 -111 -40.5t-58 -118.5t-17 -191v-395h-391v1167h-156v242h156v147h391z" />
    <glyph glyph-name="Itilde" unicode="&#x128;" horiz-adv-x="713" 
d="M158 0v1462h397v-1462h-397zM-64 1567q6 94 25.5 159t51 105.5t76 59t99.5 18.5q38 0 81 -14.5t87 -33.5t86.5 -33.5t81.5 -14.5q18 0 39.5 17t31.5 81h183q-13 -184 -80.5 -263t-165.5 -79q-45 0 -90.5 14.5t-89.5 33.5t-85 33.5t-79 14.5q-19 0 -39 -16t-33 -82h-180z
" />
    <glyph glyph-name="itilde" unicode="&#x129;" horiz-adv-x="666" 
d="M528 0h-391v1133h391v-1133zM-90 1237q6 94 25.5 159t51 105.5t76 59t99.5 18.5q38 0 81 -14.5t87 -33.5t86.5 -33.5t81.5 -14.5q18 0 39.5 17t31.5 81h183q-13 -184 -80.5 -263t-165.5 -79q-45 0 -90.5 14.5t-89.5 33.5t-85 33.5t-79 14.5q-19 0 -39 -16t-33 -82h-180z
" />
    <glyph glyph-name="Imacron" unicode="&#x12a;" horiz-adv-x="713" 
d="M158 0v1462h397v-1462h-397zM721 1807v-236h-727v236h727z" />
    <glyph glyph-name="imacron" unicode="&#x12b;" horiz-adv-x="666" 
d="M528 0h-391v1133h391v-1133zM705 1477v-236h-727v236h727z" />
    <glyph glyph-name="Ibreve" unicode="&#x12c;" horiz-adv-x="713" 
d="M158 0v1462h397v-1462h-397zM760 1942q-7 -111 -56.5 -194.5t-138.5 -130t-213 -46.5q-195 0 -294 99.5t-107 271.5h211q15 -57 37.5 -85t59.5 -37t93 -9q44 0 81.5 10.5t65.5 39t42 81.5h219z" />
    <glyph glyph-name="ibreve" unicode="&#x12d;" horiz-adv-x="666" 
d="M528 0h-391v1133h391v-1133zM744 1612q-7 -111 -56.5 -194.5t-138.5 -130t-213 -46.5q-195 0 -294 99.5t-107 271.5h211q15 -57 37.5 -85t59.5 -37t93 -9q44 0 81.5 10.5t65.5 39t42 81.5h219z" />
    <glyph glyph-name="Iogonek" unicode="&#x12e;" horiz-adv-x="713" 
d="M158 0v1462h397v-1462h-397zM385 -199q0 -37 21.5 -52t56.5 -15q26 0 61.5 6.5t56.5 15.5v-221q-34 -10 -76 -18.5t-98 -8.5q-116 0 -196 62.5t-80 169.5q0 46 20.5 94.5t71 102t141.5 114.5l154 -51q-69 -66 -101 -109t-32 -90z" />
    <glyph glyph-name="iogonek" unicode="&#x12f;" horiz-adv-x="666" 
d="M528 1133v-1133h-391v1133h391zM334 1589q84 0 146.5 -35t62.5 -139q0 -101 -62.5 -136.5t-146.5 -35.5q-86 0 -146.5 35.5t-60.5 136.5q0 104 60.5 139t146.5 35zM356 -199q0 -37 21.5 -52t56.5 -15q26 0 61.5 6.5t56.5 15.5v-221q-34 -10 -76 -18.5t-98 -8.5
q-116 0 -196 62.5t-80 169.5q0 46 20.5 94.5t71 102t141.5 114.5l154 -51q-69 -66 -101 -109t-32 -90z" />
    <glyph glyph-name="Idotaccent" unicode="&#x130;" horiz-adv-x="713" 
d="M158 0v1462h397v-1462h-397zM356 1919q84 0 146.5 -35t62.5 -139q0 -101 -62.5 -136.5t-146.5 -35.5q-86 0 -146.5 35.5t-60.5 136.5q0 104 60.5 139t146.5 35z" />
    <glyph glyph-name="dotlessi" unicode="&#x131;" horiz-adv-x="666" 
d="M528 0h-391v1133h391v-1133z" />
    <glyph glyph-name="IJ" unicode="&#x132;" horiz-adv-x="1434" 
d="M158 0v1462h397v-1462h-397zM756 -459q-67 0 -117.5 6.5t-87.5 14.5v307q32 -6 68 -13.5t78 -7.5q71 0 110.5 29t55.5 87t16 145v1353h397v-1319q0 -220 -66 -352t-183 -191t-271 -59z" />
    <glyph glyph-name="ij" unicode="&#x133;" horiz-adv-x="1329" 
d="M528 1133v-1133h-391v1133h391zM334 1589q84 0 146.5 -35t62.5 -139q0 -101 -62.5 -136.5t-146.5 -35.5q-86 0 -146.5 35.5t-60.5 136.5q0 104 60.5 139t146.5 35zM772 -492q-47 0 -108.5 7.5t-101.5 17.5v305q32 -9 59 -13.5t61 -4.5q48 0 83.5 33.5t35.5 136.5v1143
h391v-1225q0 -102 -40 -193.5t-132 -149t-248 -57.5zM791 1415q0 104 60.5 139t146.5 35q84 0 146.5 -35t62.5 -139q0 -101 -62.5 -136.5t-146.5 -35.5q-86 0 -146.5 35.5t-60.5 136.5z" />
    <glyph glyph-name="Jcircumflex" unicode="&#x134;" horiz-adv-x="721" 
d="M43 -459q-67 0 -117.5 6.5t-87.5 14.5v307q32 -6 68 -13.5t78 -7.5q71 0 110.5 29t55.5 87t16 145v1353h397v-1319q0 -220 -66 -352t-183 -191t-271 -59zM561 1899q32 -47 79 -103.5t95 -108.5t82 -87v-29h-254q-53 31 -100 67.5t-100 82.5q-54 -46 -97.5 -81t-97.5 -69
h-258v29q39 37 87.5 89t94.5 107.5t76 102.5h393z" />
    <glyph glyph-name="jcircumflex" unicode="&#x135;" horiz-adv-x="664" 
d="M106 -492q-47 0 -108.5 7.5t-101.5 17.5v305q32 -9 59 -13.5t61 -4.5q48 0 83.5 33.5t35.5 136.5v1143h391v-1225q0 -102 -40 -193.5t-132 -149t-248 -57.5zM532 1569q32 -47 79 -103.5t95 -108.5t82 -87v-29h-254q-53 31 -100 67.5t-100 82.5q-54 -46 -97.5 -81
t-97.5 -69h-258v29q39 37 87.5 89t94.5 107.5t76 102.5h393z" />
    <glyph glyph-name="uni0136" unicode="&#x136;" horiz-adv-x="1407" 
d="M1407 0h-446l-289 559l-117 -70v-489h-397v1462h397v-635q25 48 57.5 96t63.5 91l307 448h432l-461 -655zM936 -125v-22q-24 -55 -48 -104t-52.5 -97.5t-67.5 -104.5h-234v29q12 43 22 98t17 108.5t8 92.5h355z" />
    <glyph glyph-name="uni0137" unicode="&#x137;" horiz-adv-x="1350" 
d="M528 1556v-612q0 -69 -5.5 -153.5t-16.5 -153.5h8q23 35 58 88t63 88l254 320h436l-393 -482l418 -651h-447l-248 406l-127 -97v-309h-393v1556h393zM875 -125v-22q-24 -55 -48 -104t-52.5 -97.5t-67.5 -104.5h-234v29q12 43 22 98t17 108.5t8 92.5h355z" />
    <glyph glyph-name="kgreenlandic" unicode="&#x138;" horiz-adv-x="1350" 
d="M1331 1133l-405 -496l424 -637h-441l-252 399l-129 -98v-301h-393v1133h393v-246q0 -85 -3.5 -145.5t-6.5 -98.5h8q19 26 49.5 73t71.5 101l246 316h438z" />
    <glyph glyph-name="Lacute" unicode="&#x139;" horiz-adv-x="1192" 
d="M158 0v1462h395v-1143h563v-319h-958zM835 1899v-21q-36 -29 -92 -70.5t-118.5 -86t-121 -84.5t-100.5 -66h-260v29q35 38 84 90.5t98 107.5t82 101h428z" />
    <glyph glyph-name="lacute" unicode="&#x13a;" horiz-adv-x="662" 
d="M526 0h-391v1556h391v-1556zM819 1993v-21q-36 -29 -92 -70.5t-118.5 -86t-121 -84.5t-100.5 -66h-260v29q35 38 84 90.5t98 107.5t82 101h428z" />
    <glyph glyph-name="uni013B" unicode="&#x13b;" horiz-adv-x="1192" 
d="M158 0v1462h395v-1143h563v-319h-958zM832 -125v-22q-24 -55 -48 -104t-52.5 -97.5t-67.5 -104.5h-234v29q12 43 22 98t17 108.5t8 92.5h355z" />
    <glyph glyph-name="uni013C" unicode="&#x13c;" horiz-adv-x="662" 
d="M526 0h-391v1556h391v-1556zM531 -125v-22q-24 -55 -48 -104t-52.5 -97.5t-67.5 -104.5h-234v29q12 43 22 98t17 108.5t8 92.5h355z" />
    <glyph glyph-name="Lcaron" unicode="&#x13d;" horiz-adv-x="1192" 
d="M158 0v1462h395v-1143h563v-319h-958zM1178 1462v-22q-29 -50 -55.5 -97t-56 -97t-67.5 -111h-233v28q8 30 16 68t16 78.5t14.5 80t10.5 72.5h355z" />
    <glyph glyph-name="lcaron" unicode="&#x13e;" horiz-adv-x="662" 
d="M526 0h-391v1556h391v-1556zM1002 1556v-22q-29 -50 -55.5 -97t-56 -97t-67.5 -111h-233v28q8 30 16 68t16 78.5t14.5 80t10.5 72.5h355z" />
    <glyph glyph-name="Ldot" unicode="&#x13f;" horiz-adv-x="1192" 
d="M158 0v1462h395v-1143h563v-319h-958zM916 985q84 0 146.5 -35t62.5 -139q0 -101 -62.5 -136.5t-146.5 -35.5q-86 0 -146.5 35.5t-60.5 136.5q0 104 60.5 139t146.5 35z" />
    <glyph glyph-name="ldot" unicode="&#x140;" horiz-adv-x="887" 
d="M526 0h-391v1556h391v-1556zM772 950q84 0 146.5 -35t62.5 -139q0 -101 -62.5 -136.5t-146.5 -35.5q-86 0 -146.5 35.5t-60.5 136.5q0 104 60.5 139t146.5 35z" />
    <glyph glyph-name="Lslash" unicode="&#x141;" horiz-adv-x="1247" 
d="M213 0v481l-102 -57l-142 248l244 145v645h395v-401l211 131l148 -244l-359 -223v-406h563v-319h-958z" />
    <glyph glyph-name="lslash" unicode="&#x142;" horiz-adv-x="854" 
d="M233 0v403l-124 -67l-140 248l264 151v821h392v-585l114 69l146 -247l-260 -154v-639h-392z" />
    <glyph glyph-name="Nacute" unicode="&#x143;" horiz-adv-x="1708" 
d="M1550 0h-518l-534 1030h-9q5 -47 9 -113t7 -134.5t3 -123.5v-659h-350v1462h516l532 -1016h6q-3 48 -6 111.5t-5.5 128.5t-2.5 115v661h352v-1462zM1341 1899v-21q-36 -29 -92 -70.5t-118.5 -86t-121 -84.5t-100.5 -66h-260v29q35 38 84 90.5t98 107.5t82 101h428z" />
    <glyph glyph-name="nacute" unicode="&#x144;" horiz-adv-x="1372" 
d="M844 1153q175 0 286 -99t111 -317v-737h-391v618q0 113 -32.5 170.5t-104.5 57.5q-111 0 -149 -90.5t-38 -259.5v-496h-391v1133h295l53 -150h15q36 54 86 92t115 58t145 20zM1173 1569v-21q-36 -29 -92 -70.5t-118.5 -86t-121 -84.5t-100.5 -66h-260v29q35 38 84 90.5
t98 107.5t82 101h428z" />
    <glyph glyph-name="uni0145" unicode="&#x145;" horiz-adv-x="1708" 
d="M1550 0h-518l-534 1030h-9q5 -47 9 -113t7 -134.5t3 -123.5v-659h-350v1462h516l532 -1016h6q-3 48 -6 111.5t-5.5 128.5t-2.5 115v661h352v-1462zM1053 -125v-22q-24 -55 -48 -104t-52.5 -97.5t-67.5 -104.5h-234v29q12 43 22 98t17 108.5t8 92.5h355z" />
    <glyph glyph-name="uni0146" unicode="&#x146;" horiz-adv-x="1372" 
d="M844 1153q175 0 286 -99t111 -317v-737h-391v618q0 113 -32.5 170.5t-104.5 57.5q-111 0 -149 -90.5t-38 -259.5v-496h-391v1133h295l53 -150h15q36 54 86 92t115 58t145 20zM885 -125v-22q-24 -55 -48 -104t-52.5 -97.5t-67.5 -104.5h-234v29q12 43 22 98t17 108.5
t8 92.5h355z" />
    <glyph glyph-name="Ncaron" unicode="&#x147;" horiz-adv-x="1708" 
d="M1550 0h-518l-534 1030h-9q5 -47 9 -113t7 -134.5t3 -123.5v-659h-350v1462h516l532 -1016h6q-3 48 -6 111.5t-5.5 128.5t-2.5 115v661h352v-1462zM662 1571q-30 47 -76 102.5t-94.5 107.5t-87.5 89v29h258q54 -34 97.5 -68.5t97.5 -81.5q53 47 100 83t100 67h254v-29
q-34 -35 -82 -87t-95 -108.5t-79 -103.5h-393z" />
    <glyph glyph-name="ncaron" unicode="&#x148;" horiz-adv-x="1372" 
d="M844 1153q175 0 286 -99t111 -317v-737h-391v618q0 113 -32.5 170.5t-104.5 57.5q-111 0 -149 -90.5t-38 -259.5v-496h-391v1133h295l53 -150h15q36 54 86 92t115 58t145 20zM494 1241q-30 47 -76 102.5t-94.5 107.5t-87.5 89v29h258q54 -34 97.5 -68.5t97.5 -81.5
q53 47 100 83t100 67h254v-29q-34 -35 -82 -87t-95 -108.5t-79 -103.5h-393z" />
    <glyph glyph-name="napostrophe" unicode="&#x149;" horiz-adv-x="1700" 
d="M1172 1153q175 0 286 -99t111 -317v-737h-391v618q0 113 -32.5 170.5t-104.5 57.5q-111 0 -149 -90.5t-38 -259.5v-496h-391v1133h295l53 -150h15q36 54 86 92t115 58t145 20zM440 1460l15 -22q-18 -74 -47 -176.5t-62.5 -205.5t-67.5 -179h-278q15 70 29.5 146.5
t27.5 153.5t23.5 149.5t17.5 133.5h342z" />
    <glyph glyph-name="Eng" unicode="&#x14a;" horiz-adv-x="1708" 
d="M1028 -489q-73 0 -129 6.5t-94 13.5v307q38 -6 79.5 -13t92.5 -7q79 0 130.5 20.5t79 61t32.5 100.5l-721 1030h-9q5 -40 9 -109.5t7 -150.5t3 -156v-614h-350v1462h475l573 -809h8q-3 39 -6.5 112.5t-6.5 157t-3 152.5v387h352v-1470q0 -157 -66.5 -264t-184 -162
t-271.5 -55z" />
    <glyph glyph-name="eng" unicode="&#x14b;" horiz-adv-x="1372" 
d="M829 -492q-46 0 -108 7.5t-103 17.5v305q35 -9 60 -13.5t57 -4.5q45 0 79 33.5t34 136.5v665q0 94 -35 142.5t-100 48.5q-74 0 -114.5 -40.5t-56.5 -118.5t-16 -191v-496h-391v1133h295l49 -140h25q36 58 90 93t119.5 51t132.5 16q110 0 199.5 -43.5t142.5 -135
t53 -237.5v-829q0 -102 -39.5 -193.5t-130 -149t-242.5 -57.5z" />
    <glyph glyph-name="Omacron" unicode="&#x14c;" horiz-adv-x="1632" 
d="M1526 733q0 -169 -40.5 -307.5t-126.5 -238.5t-221 -153.5t-323 -53.5q-184 0 -318.5 53.5t-221.5 153t-129 238.5t-42 310q0 228 75.5 396.5t233.5 261t404 92.5q250 0 406.5 -93t229.5 -262t73 -397zM520 733q0 -132 30 -227t95 -146t170 -51q109 0 173.5 51t93 146
t28.5 227q0 198 -66 313t-227 115q-107 0 -172.5 -52t-95 -148t-29.5 -228zM1188 1807v-236h-727v236h727z" />
    <glyph glyph-name="omacron" unicode="&#x14d;" horiz-adv-x="1305" 
d="M1217 569q0 -142 -39 -252t-113 -185t-179 -113.5t-237 -38.5q-123 0 -225.5 38.5t-178.5 113.5t-117.5 185t-41.5 252q0 188 68.5 318t196 198t304.5 68q163 0 290 -68t199.5 -198t72.5 -318zM483 569q0 -97 17 -163.5t54.5 -101t98.5 -34.5t97 34.5t52.5 101
t16.5 163.5t-16.5 162t-53 98t-98.5 33q-89 0 -128.5 -74t-39.5 -219zM1024 1477v-236h-727v236h727z" />
    <glyph glyph-name="Obreve" unicode="&#x14e;" horiz-adv-x="1632" 
d="M1526 733q0 -169 -40.5 -307.5t-126.5 -238.5t-221 -153.5t-323 -53.5q-184 0 -318.5 53.5t-221.5 153t-129 238.5t-42 310q0 228 75.5 396.5t233.5 261t404 92.5q250 0 406.5 -93t229.5 -262t73 -397zM520 733q0 -132 30 -227t95 -146t170 -51q109 0 173.5 51t93 146
t28.5 227q0 198 -66 313t-227 115q-107 0 -172.5 -52t-95 -148t-29.5 -228zM1227 1942q-7 -111 -56.5 -194.5t-138.5 -130t-213 -46.5q-195 0 -294 99.5t-107 271.5h211q15 -57 37.5 -85t59.5 -37t93 -9q44 0 81.5 10.5t65.5 39t42 81.5h219z" />
    <glyph glyph-name="obreve" unicode="&#x14f;" horiz-adv-x="1305" 
d="M1217 569q0 -142 -39 -252t-113 -185t-179 -113.5t-237 -38.5q-123 0 -225.5 38.5t-178.5 113.5t-117.5 185t-41.5 252q0 188 68.5 318t196 198t304.5 68q163 0 290 -68t199.5 -198t72.5 -318zM483 569q0 -97 17 -163.5t54.5 -101t98.5 -34.5t97 34.5t52.5 101
t16.5 163.5t-16.5 162t-53 98t-98.5 33q-89 0 -128.5 -74t-39.5 -219zM1063 1612q-7 -111 -56.5 -194.5t-138.5 -130t-213 -46.5q-195 0 -294 99.5t-107 271.5h211q15 -57 37.5 -85t59.5 -37t93 -9q44 0 81.5 10.5t65.5 39t42 81.5h219z" />
    <glyph glyph-name="Ohungarumlaut" unicode="&#x150;" horiz-adv-x="1632" 
d="M1526 733q0 -169 -40.5 -307.5t-126.5 -238.5t-221 -153.5t-323 -53.5q-184 0 -318.5 53.5t-221.5 153t-129 238.5t-42 310q0 228 75.5 396.5t233.5 261t404 92.5q250 0 406.5 -93t229.5 -262t73 -397zM520 733q0 -132 30 -227t95 -146t170 -51q109 0 173.5 51t93 146
t28.5 227q0 198 -66 313t-227 115q-107 0 -172.5 -52t-95 -148t-29.5 -228zM1456 1899v-21q-16 -27 -61 -67.5t-103 -85.5t-115 -86t-97 -68h-203v29q29 39 67.5 91.5t76.5 107t63 100.5h372zM991 1899v-21q-16 -27 -61 -67.5t-103 -85.5t-114.5 -86t-95.5 -68h-203v29
q29 39 67 91.5t76 107t64 100.5h370z" />
    <glyph glyph-name="ohungarumlaut" unicode="&#x151;" horiz-adv-x="1305" 
d="M1217 569q0 -142 -39 -252t-113 -185t-179 -113.5t-237 -38.5q-123 0 -225.5 38.5t-178.5 113.5t-117.5 185t-41.5 252q0 188 68.5 318t196 198t304.5 68q163 0 290 -68t199.5 -198t72.5 -318zM483 569q0 -97 17 -163.5t54.5 -101t98.5 -34.5t97 34.5t52.5 101
t16.5 163.5t-16.5 162t-53 98t-98.5 33q-89 0 -128.5 -74t-39.5 -219zM1292 1569v-21q-16 -27 -61 -67.5t-103 -85.5t-115 -86t-97 -68h-203v29q29 39 67.5 91.5t76.5 107t63 100.5h372zM827 1569v-21q-16 -27 -61 -67.5t-103 -85.5t-114.5 -86t-95.5 -68h-203v29
q29 39 67 91.5t76 107t64 100.5h370z" />
    <glyph glyph-name="OE" unicode="&#x152;" horiz-adv-x="1960" 
d="M776 1485q56 0 131 -6t119 -17h836v-317h-473v-230h436v-317h-436v-276h473v-322h-844q-43 -9 -117 -14.5t-127 -5.5q-221 0 -370 94t-224.5 264t-75.5 397t74 395.5t223 261.5t375 93zM778 1161q-66 0 -114.5 -29.5t-80.5 -85.5t-47.5 -135t-15.5 -178q0 -132 28 -227
t84.5 -146t143.5 -51q63 0 121.5 11t95.5 32v760q-34 23 -93 36t-122 13z" />
    <glyph glyph-name="oe" unicode="&#x153;" horiz-adv-x="2007" 
d="M1430 1153q143 0 254 -57.5t174 -173t63 -289.5v-172h-696q5 -83 69.5 -143t190.5 -60q78 0 172.5 18.5t191.5 67.5v-281q-82 -43 -175.5 -63t-239.5 -20q-111 0 -209.5 33.5t-173.5 103.5q-74 -67 -175 -102t-227 -35q-163 0 -290.5 68.5t-200 200t-72.5 320.5
q0 188 68.5 318t196 198t304.5 68q111 0 206.5 -32t168.5 -95q49 40 107.5 68.5t131 43.5t161.5 15zM651 862q-89 0 -127.5 -74t-38.5 -219q0 -97 16.5 -163.5t53.5 -101t98 -34.5t97 34.5t52.5 101t16.5 163.5t-16.5 162t-53 98t-98.5 33zM1407 887q-72 0 -120 -40
t-56 -140h340q-1 49 -20 90t-55.5 65.5t-88.5 24.5z" />
    <glyph glyph-name="Racute" unicode="&#x154;" horiz-adv-x="1386" 
d="M637 1462q199 0 331 -48.5t198.5 -144.5t66.5 -239q0 -89 -30 -162t-85.5 -130.5t-132.5 -100.5l426 -637h-448l-310 532h-100v-532h-395v1462h479zM631 1163h-78v-334h74q91 0 149 40t58 143q0 71 -48 111t-155 40zM1182 1899v-21q-36 -29 -92 -70.5t-118.5 -86
t-121 -84.5t-100.5 -66h-260v29q35 38 84 90.5t98 107.5t82 101h428z" />
    <glyph glyph-name="racute" unicode="&#x155;" horiz-adv-x="961" 
d="M819 1153q32 0 67 -4.5t52 -7.5l-35 -369q-19 5 -49 8.5t-84 3.5q-37 0 -79 -7t-79.5 -29.5t-61.5 -68t-24 -122.5v-557h-391v1133h291l61 -181h19q31 56 79.5 101.5t109 72.5t124.5 27zM1001 1569v-21q-36 -29 -92 -70.5t-118.5 -86t-121 -84.5t-100.5 -66h-260v29
q35 38 84 90.5t98 107.5t82 101h428z" />
    <glyph glyph-name="uni0156" unicode="&#x156;" horiz-adv-x="1386" 
d="M637 1462q199 0 331 -48.5t198.5 -144.5t66.5 -239q0 -89 -30 -162t-85.5 -130.5t-132.5 -100.5l426 -637h-448l-310 532h-100v-532h-395v1462h479zM631 1163h-78v-334h74q91 0 149 40t58 143q0 71 -48 111t-155 40zM924 -125v-22q-24 -55 -48 -104t-52.5 -97.5
t-67.5 -104.5h-234v29q12 43 22 98t17 108.5t8 92.5h355z" />
    <glyph glyph-name="uni0157" unicode="&#x157;" horiz-adv-x="961" 
d="M819 1153q32 0 67 -4.5t52 -7.5l-35 -369q-19 5 -49 8.5t-84 3.5q-37 0 -79 -7t-79.5 -29.5t-61.5 -68t-24 -122.5v-557h-391v1133h291l61 -181h19q31 56 79.5 101.5t109 72.5t124.5 27zM537 -125v-22q-24 -55 -48 -104t-52.5 -97.5t-67.5 -104.5h-234v29q12 43 22 98
t17 108.5t8 92.5h355z" />
    <glyph glyph-name="Rcaron" unicode="&#x158;" horiz-adv-x="1386" 
d="M637 1462q199 0 331 -48.5t198.5 -144.5t66.5 -239q0 -89 -30 -162t-85.5 -130.5t-132.5 -100.5l426 -637h-448l-310 532h-100v-532h-395v1462h479zM631 1163h-78v-334h74q91 0 149 40t58 143q0 71 -48 111t-155 40zM502 1571q-30 47 -76 102.5t-94.5 107.5t-87.5 89v29
h258q54 -34 97.5 -68.5t97.5 -81.5q53 47 100 83t100 67h254v-29q-34 -35 -82 -87t-95 -108.5t-79 -103.5h-393z" />
    <glyph glyph-name="rcaron" unicode="&#x159;" horiz-adv-x="961" 
d="M819 1153q32 0 67 -4.5t52 -7.5l-35 -369q-19 5 -49 8.5t-84 3.5q-37 0 -79 -7t-79.5 -29.5t-61.5 -68t-24 -122.5v-557h-391v1133h291l61 -181h19q31 56 79.5 101.5t109 72.5t124.5 27zM322 1241q-30 47 -76 102.5t-94.5 107.5t-87.5 89v29h258q54 -34 97.5 -68.5
t97.5 -81.5q53 47 100 83t100 67h254v-29q-34 -35 -82 -87t-95 -108.5t-79 -103.5h-393z" />
    <glyph glyph-name="Sacute" unicode="&#x15a;" horiz-adv-x="1182" 
d="M1114 444q0 -119 -60 -225.5t-186.5 -172.5t-326.5 -66q-100 0 -175.5 9t-140.5 29.5t-135 53.5v352q119 -60 240 -91.5t219 -31.5q59 0 96.5 14t55.5 38.5t18 56.5q0 38 -26.5 64.5t-84.5 55.5t-153 72q-81 38 -146.5 78t-112 91.5t-71.5 120.5t-25 163
q0 141 69.5 236.5t194 143.5t287.5 48q143 0 257.5 -32t205.5 -73l-121 -305q-94 43 -185 68.5t-169 25.5q-51 0 -83.5 -12.5t-48 -33.5t-15.5 -48q0 -34 26.5 -61t89 -58.5t170.5 -81.5q107 -48 182 -103.5t114.5 -133t39.5 -191.5zM1079 1899v-21q-36 -29 -92 -70.5
t-118.5 -86t-121 -84.5t-100.5 -66h-260v29q35 38 84 90.5t98 107.5t82 101h428z" />
    <glyph glyph-name="sacute" unicode="&#x15b;" horiz-adv-x="1059" 
d="M977 348q0 -108 -48 -191t-153.5 -130t-277.5 -47q-121 0 -216.5 13t-193.5 50v313q107 -49 218 -70.5t175 -21.5q66 0 96.5 14.5t30.5 43.5q0 25 -20.5 42.5t-73 40.5t-147.5 62q-94 39 -156.5 85t-93.5 110t-31 157q0 166 128 250t339 84q112 0 211 -24.5t205 -71.5
l-107 -252q-84 38 -170 61t-137 23q-46 0 -71 -12t-25 -35q0 -21 17.5 -37t66.5 -37t143 -59q99 -40 163.5 -85.5t96 -110.5t31.5 -165zM1001 1569v-21q-36 -29 -92 -70.5t-118.5 -86t-121 -84.5t-100.5 -66h-260v29q35 38 84 90.5t98 107.5t82 101h428z" />
    <glyph glyph-name="Scircumflex" unicode="&#x15c;" horiz-adv-x="1182" 
d="M1114 444q0 -119 -60 -225.5t-186.5 -172.5t-326.5 -66q-100 0 -175.5 9t-140.5 29.5t-135 53.5v352q119 -60 240 -91.5t219 -31.5q59 0 96.5 14t55.5 38.5t18 56.5q0 38 -26.5 64.5t-84.5 55.5t-153 72q-81 38 -146.5 78t-112 91.5t-71.5 120.5t-25 163
q0 141 69.5 236.5t194 143.5t287.5 48q143 0 257.5 -32t205.5 -73l-121 -305q-94 43 -185 68.5t-169 25.5q-51 0 -83.5 -12.5t-48 -33.5t-15.5 -48q0 -34 26.5 -61t89 -58.5t170.5 -81.5q107 -48 182 -103.5t114.5 -133t39.5 -191.5zM792 1899q32 -47 79 -103.5t95 -108.5
t82 -87v-29h-254q-53 31 -100 67.5t-100 82.5q-54 -46 -97.5 -81t-97.5 -69h-258v29q39 37 87.5 89t94.5 107.5t76 102.5h393z" />
    <glyph glyph-name="scircumflex" unicode="&#x15d;" horiz-adv-x="1059" 
d="M977 348q0 -108 -48 -191t-153.5 -130t-277.5 -47q-121 0 -216.5 13t-193.5 50v313q107 -49 218 -70.5t175 -21.5q66 0 96.5 14.5t30.5 43.5q0 25 -20.5 42.5t-73 40.5t-147.5 62q-94 39 -156.5 85t-93.5 110t-31 157q0 166 128 250t339 84q112 0 211 -24.5t205 -71.5
l-107 -252q-84 38 -170 61t-137 23q-46 0 -71 -12t-25 -35q0 -21 17.5 -37t66.5 -37t143 -59q99 -40 163.5 -85.5t96 -110.5t31.5 -165zM715 1569q32 -47 79 -103.5t95 -108.5t82 -87v-29h-254q-53 31 -100 67.5t-100 82.5q-54 -46 -97.5 -81t-97.5 -69h-258v29
q39 37 87.5 89t94.5 107.5t76 102.5h393z" />
    <glyph glyph-name="Scedilla" unicode="&#x15e;" horiz-adv-x="1182" 
d="M1114 444q0 -119 -60 -225.5t-186.5 -172.5t-326.5 -66q-100 0 -175.5 9t-140.5 29.5t-135 53.5v352q119 -60 240 -91.5t219 -31.5q59 0 96.5 14t55.5 38.5t18 56.5q0 38 -26.5 64.5t-84.5 55.5t-153 72q-81 38 -146.5 78t-112 91.5t-71.5 120.5t-25 163
q0 141 69.5 236.5t194 143.5t287.5 48q143 0 257.5 -32t205.5 -73l-121 -305q-94 43 -185 68.5t-169 25.5q-51 0 -83.5 -12.5t-48 -33.5t-15.5 -48q0 -34 26.5 -61t89 -58.5t170.5 -81.5q107 -48 182 -103.5t114.5 -133t39.5 -191.5zM828 -252q0 -109 -75 -174.5t-200 -65.5
q-70 0 -127 11t-94 24v193q34 -11 66.5 -17t66.5 -6q38 0 60 16t22 42q0 35 -33.5 55.5t-111.5 34.5l61 139h195l-19 -61q41 -9 85 -29t74 -58t30 -104z" />
    <glyph glyph-name="scedilla" unicode="&#x15f;" horiz-adv-x="1059" 
d="M977 348q0 -108 -48 -191t-153.5 -130t-277.5 -47q-121 0 -216.5 13t-193.5 50v313q107 -49 218 -70.5t175 -21.5q66 0 96.5 14.5t30.5 43.5q0 25 -20.5 42.5t-73 40.5t-147.5 62q-94 39 -156.5 85t-93.5 110t-31 157q0 166 128 250t339 84q112 0 211 -24.5t205 -71.5
l-107 -252q-84 38 -170 61t-137 23q-46 0 -71 -12t-25 -35q0 -21 17.5 -37t66.5 -37t143 -59q99 -40 163.5 -85.5t96 -110.5t31.5 -165zM750 -252q0 -109 -75 -174.5t-200 -65.5q-70 0 -127 11t-94 24v193q34 -11 66.5 -17t66.5 -6q38 0 60 16t22 42q0 35 -33.5 55.5
t-111.5 34.5l61 139h195l-19 -61q41 -9 85 -29t74 -58t30 -104z" />
    <glyph glyph-name="Scaron" unicode="&#x160;" horiz-adv-x="1182" 
d="M1114 444q0 -119 -60 -225.5t-186.5 -172.5t-326.5 -66q-100 0 -175.5 9t-140.5 29.5t-135 53.5v352q119 -60 240 -91.5t219 -31.5q59 0 96.5 14t55.5 38.5t18 56.5q0 38 -26.5 64.5t-84.5 55.5t-153 72q-81 38 -146.5 78t-112 91.5t-71.5 120.5t-25 163
q0 141 69.5 236.5t194 143.5t287.5 48q143 0 257.5 -32t205.5 -73l-121 -305q-94 43 -185 68.5t-169 25.5q-51 0 -83.5 -12.5t-48 -33.5t-15.5 -48q0 -34 26.5 -61t89 -58.5t170.5 -81.5q107 -48 182 -103.5t114.5 -133t39.5 -191.5zM399 1571q-30 47 -76 102.5t-94.5 107.5
t-87.5 89v29h258q54 -34 97.5 -68.5t97.5 -81.5q53 47 100 83t100 67h254v-29q-34 -35 -82 -87t-95 -108.5t-79 -103.5h-393z" />
    <glyph glyph-name="scaron" unicode="&#x161;" horiz-adv-x="1059" 
d="M977 348q0 -108 -48 -191t-153.5 -130t-277.5 -47q-121 0 -216.5 13t-193.5 50v313q107 -49 218 -70.5t175 -21.5q66 0 96.5 14.5t30.5 43.5q0 25 -20.5 42.5t-73 40.5t-147.5 62q-94 39 -156.5 85t-93.5 110t-31 157q0 166 128 250t339 84q112 0 211 -24.5t205 -71.5
l-107 -252q-84 38 -170 61t-137 23q-46 0 -71 -12t-25 -35q0 -21 17.5 -37t66.5 -37t143 -59q99 -40 163.5 -85.5t96 -110.5t31.5 -165zM322 1241q-30 47 -76 102.5t-94.5 107.5t-87.5 89v29h258q54 -34 97.5 -68.5t97.5 -81.5q53 47 100 83t100 67h254v-29q-34 -35 -82 -87
t-95 -108.5t-79 -103.5h-393z" />
    <glyph glyph-name="uni0162" unicode="&#x162;" horiz-adv-x="1210" 
d="M803 0h-395v1139h-357v323h1108v-323h-356v-1139zM842 -252q0 -109 -75 -174.5t-200 -65.5q-70 0 -127 11t-94 24v193q34 -11 66.5 -17t66.5 -6q38 0 60 16t22 42q0 35 -33.5 55.5t-111.5 34.5l61 139h195l-19 -61q41 -9 85 -29t74 -58t30 -104z" />
    <glyph glyph-name="uni0163" unicode="&#x163;" horiz-adv-x="942" 
d="M690 289q53 0 97 11t92 28v-285q-64 -28 -135.5 -45.5t-182.5 -17.5q-110 0 -194 34.5t-130.5 120t-46.5 238.5v467h-137v159l174 123l101 238h256v-227h278v-293h-278v-441q0 -55 28 -82.5t78 -27.5zM777 -252q0 -109 -75 -174.5t-200 -65.5q-70 0 -127 11t-94 24v193
q34 -11 66.5 -17t66.5 -6q38 0 60 16t22 42q0 35 -33.5 55.5t-111.5 34.5l61 139h195l-19 -61q41 -9 85 -29t74 -58t30 -104z" />
    <glyph glyph-name="Tcaron" unicode="&#x164;" horiz-adv-x="1210" 
d="M803 0h-395v1139h-357v323h1108v-323h-356v-1139zM414 1571q-30 47 -76 102.5t-94.5 107.5t-87.5 89v29h258q54 -34 97.5 -68.5t97.5 -81.5q53 47 100 83t100 67h254v-29q-34 -35 -82 -87t-95 -108.5t-79 -103.5h-393z" />
    <glyph glyph-name="tcaron" unicode="&#x165;" horiz-adv-x="942" 
d="M690 289q53 0 97 11t92 28v-285q-64 -28 -135.5 -45.5t-182.5 -17.5q-110 0 -194 34.5t-130.5 120t-46.5 238.5v467h-137v159l174 123l101 238h256v-227h278v-293h-278v-441q0 -55 28 -82.5t78 -27.5zM1295 1556v-22q-29 -50 -55.5 -97t-56 -97t-67.5 -111h-233v28
q8 30 16 68t16 78.5t14.5 80t10.5 72.5h355z" />
    <glyph glyph-name="Tbar" unicode="&#x166;" horiz-adv-x="1210" 
d="M408 0v547h-207v325h207v267h-357v323h1108v-323h-356v-267h211v-325h-211v-547h-395z" />
    <glyph glyph-name="tbar" unicode="&#x167;" horiz-adv-x="983" 
d="M74 444v244h753v-244h-753zM690 289q53 0 97 11t92 28v-285q-64 -28 -135.5 -45.5t-182.5 -17.5q-110 0 -194 34.5t-130.5 120t-46.5 238.5v467h-137v159l174 123l101 238h256v-227h278v-293h-278v-441q0 -55 28 -82.5t78 -27.5z" />
    <glyph glyph-name="Utilde" unicode="&#x168;" horiz-adv-x="1550" 
d="M1401 1462v-880q0 -184 -70 -319.5t-210 -209t-351 -73.5q-302 0 -461 155t-159 438v889h397v-858q0 -155 58 -225t171 -70q81 0 132 30.5t74.5 96.5t23.5 170v856h395zM352 1567q6 94 25.5 159t51 105.5t76 59t99.5 18.5q38 0 81 -14.5t87 -33.5t86.5 -33.5t81.5 -14.5
q18 0 39.5 17t31.5 81h183q-13 -184 -80.5 -263t-165.5 -79q-45 0 -90.5 14.5t-89.5 33.5t-85 33.5t-79 14.5q-19 0 -39 -16t-33 -82h-180z" />
    <glyph glyph-name="utilde" unicode="&#x169;" horiz-adv-x="1372" 
d="M1237 1133v-1133h-295l-49 141h-23q-35 -57 -88.5 -92.5t-118.5 -52t-135 -16.5q-111 0 -200.5 43t-142 135t-52.5 237v738h391v-619q0 -110 31.5 -167.5t103.5 -57.5q74 0 114.5 40t56.5 118t16 190v496h391zM262 1237q6 94 25.5 159t51 105.5t76 59t99.5 18.5
q38 0 81 -14.5t87 -33.5t86.5 -33.5t81.5 -14.5q18 0 39.5 17t31.5 81h183q-13 -184 -80.5 -263t-165.5 -79q-45 0 -90.5 14.5t-89.5 33.5t-85 33.5t-79 14.5q-19 0 -39 -16t-33 -82h-180z" />
    <glyph glyph-name="Umacron" unicode="&#x16a;" horiz-adv-x="1550" 
d="M1401 1462v-880q0 -184 -70 -319.5t-210 -209t-351 -73.5q-302 0 -461 155t-159 438v889h397v-858q0 -155 58 -225t171 -70q81 0 132 30.5t74.5 96.5t23.5 170v856h395zM1147 1807v-236h-727v236h727z" />
    <glyph glyph-name="umacron" unicode="&#x16b;" horiz-adv-x="1372" 
d="M1237 1133v-1133h-295l-49 141h-23q-35 -57 -88.5 -92.5t-118.5 -52t-135 -16.5q-111 0 -200.5 43t-142 135t-52.5 237v738h391v-619q0 -110 31.5 -167.5t103.5 -57.5q74 0 114.5 40t56.5 118t16 190v496h391zM1057 1477v-236h-727v236h727z" />
    <glyph glyph-name="Ubreve" unicode="&#x16c;" horiz-adv-x="1550" 
d="M1401 1462v-880q0 -184 -70 -319.5t-210 -209t-351 -73.5q-302 0 -461 155t-159 438v889h397v-858q0 -155 58 -225t171 -70q81 0 132 30.5t74.5 96.5t23.5 170v856h395zM1186 1942q-7 -111 -56.5 -194.5t-138.5 -130t-213 -46.5q-195 0 -294 99.5t-107 271.5h211
q15 -57 37.5 -85t59.5 -37t93 -9q44 0 81.5 10.5t65.5 39t42 81.5h219z" />
    <glyph glyph-name="ubreve" unicode="&#x16d;" horiz-adv-x="1372" 
d="M1237 1133v-1133h-295l-49 141h-23q-35 -57 -88.5 -92.5t-118.5 -52t-135 -16.5q-111 0 -200.5 43t-142 135t-52.5 237v738h391v-619q0 -110 31.5 -167.5t103.5 -57.5q74 0 114.5 40t56.5 118t16 190v496h391zM1096 1612q-7 -111 -56.5 -194.5t-138.5 -130t-213 -46.5
q-195 0 -294 99.5t-107 271.5h211q15 -57 37.5 -85t59.5 -37t93 -9q44 0 81.5 10.5t65.5 39t42 81.5h219z" />
    <glyph glyph-name="Uring" unicode="&#x16e;" horiz-adv-x="1550" 
d="M1401 1462v-880q0 -184 -70 -319.5t-210 -209t-351 -73.5q-302 0 -461 155t-159 438v889h397v-858q0 -155 58 -225t171 -70q81 0 132 30.5t74.5 96.5t23.5 170v856h395zM776 1567q-118 0 -191 67.5t-73 184.5q0 119 73 186.5t191 67.5q113 0 192.5 -67.5t79.5 -184.5
q0 -118 -79 -186t-193 -68zM776 1735q35 0 59.5 23.5t24.5 60.5q0 38 -24.5 61t-59.5 23t-59.5 -23t-24.5 -61q0 -37 21.5 -60.5t62.5 -23.5z" />
    <glyph glyph-name="uring" unicode="&#x16f;" horiz-adv-x="1372" 
d="M1237 1133v-1133h-295l-49 141h-23q-35 -57 -88.5 -92.5t-118.5 -52t-135 -16.5q-111 0 -200.5 43t-142 135t-52.5 237v738h391v-619q0 -110 31.5 -167.5t103.5 -57.5q74 0 114.5 40t56.5 118t16 190v496h391zM686 1237q-118 0 -191 67.5t-73 184.5q0 119 73 186.5
t191 67.5q113 0 192.5 -67.5t79.5 -184.5q0 -118 -79 -186t-193 -68zM686 1405q35 0 59.5 23.5t24.5 60.5q0 38 -24.5 61t-59.5 23t-59.5 -23t-24.5 -61q0 -37 21.5 -60.5t62.5 -23.5z" />
    <glyph glyph-name="Uhungarumlaut" unicode="&#x170;" horiz-adv-x="1550" 
d="M1401 1462v-880q0 -184 -70 -319.5t-210 -209t-351 -73.5q-302 0 -461 155t-159 438v889h397v-858q0 -155 58 -225t171 -70q81 0 132 30.5t74.5 96.5t23.5 170v856h395zM1415 1899v-21q-16 -27 -61 -67.5t-103 -85.5t-115 -86t-97 -68h-203v29q29 39 67.5 91.5t76.5 107
t63 100.5h372zM950 1899v-21q-16 -27 -61 -67.5t-103 -85.5t-114.5 -86t-95.5 -68h-203v29q29 39 67 91.5t76 107t64 100.5h370z" />
    <glyph glyph-name="uhungarumlaut" unicode="&#x171;" horiz-adv-x="1372" 
d="M1237 1133v-1133h-295l-49 141h-23q-35 -57 -88.5 -92.5t-118.5 -52t-135 -16.5q-111 0 -200.5 43t-142 135t-52.5 237v738h391v-619q0 -110 31.5 -167.5t103.5 -57.5q74 0 114.5 40t56.5 118t16 190v496h391zM1325 1569v-21q-16 -27 -61 -67.5t-103 -85.5t-115 -86
t-97 -68h-203v29q29 39 67.5 91.5t76.5 107t63 100.5h372zM860 1569v-21q-16 -27 -61 -67.5t-103 -85.5t-114.5 -86t-95.5 -68h-203v29q29 39 67 91.5t76 107t64 100.5h370z" />
    <glyph glyph-name="Uogonek" unicode="&#x172;" horiz-adv-x="1550" 
d="M1063 -180q0 -51 21.5 -68.5t56.5 -17.5q26 0 61.5 6.5t57.5 15.5v-221q-34 -10 -76.5 -18.5t-98.5 -8.5q-116 0 -196 64.5t-80 185.5q0 52 20.5 109t71 120.5t141.5 133.5l224 49q-62 -72 -108 -129.5t-70.5 -109.5t-24.5 -111zM1401 1462v-880q0 -184 -70 -319.5
t-210 -209t-351 -73.5q-302 0 -461 155t-159 438v889h397v-858q0 -155 58 -225t171 -70q81 0 132 30.5t74.5 96.5t23.5 170v856h395z" />
    <glyph glyph-name="uogonek" unicode="&#x173;" horiz-adv-x="1372" 
d="M1237 1133v-1133h-295l-49 141h-23q-35 -57 -88.5 -92.5t-118.5 -52t-135 -16.5q-111 0 -200.5 43t-142 135t-52.5 237v738h391v-619q0 -110 31.5 -167.5t103.5 -57.5q74 0 114.5 40t56.5 118t16 190v496h391zM1026 -199q0 -37 21.5 -52t56.5 -15q26 0 61.5 6.5
t56.5 15.5v-221q-34 -10 -76 -18.5t-98 -8.5q-116 0 -196 62.5t-80 169.5q0 46 20.5 94.5t71 102t141.5 114.5l154 -51q-69 -66 -101 -109t-32 -90z" />
    <glyph glyph-name="Wcircumflex" unicode="&#x174;" horiz-adv-x="2128" 
d="M2097 1462l-360 -1462h-467l-140 637q-4 18 -12.5 61t-19 98t-19 108.5t-12.5 90.5q-4 -37 -13 -90.5t-19.5 -108.5t-20 -98t-13.5 -61l-141 -637h-467l-362 1462h381l159 -733q6 -27 16.5 -76.5t22 -108t21.5 -112.5t14 -90q8 62 21.5 141t30 160.5t31.5 151.5t26 114
l129 553h366l125 -553q10 -43 25.5 -113.5t32 -152.5t30.5 -161.5t21 -139.5q6 50 20 126.5t28.5 149t22.5 109.5l162 735h381zM1265 1899q32 -47 79 -103.5t95 -108.5t82 -87v-29h-254q-53 31 -100 67.5t-100 82.5q-54 -46 -97.5 -81t-97.5 -69h-258v29q39 37 87.5 89
t94.5 107.5t76 102.5h393z" />
    <glyph glyph-name="wcircumflex" unicode="&#x175;" horiz-adv-x="1864" 
d="M1110 0l-119 496q-9 38 -18 86.5t-17.5 97.5t-14.5 90t-9 64h-6q-3 -23 -10 -64.5t-16 -91.5t-19.5 -101.5t-20.5 -95.5l-115 -481h-411l-309 1133h385l92 -435q10 -48 20.5 -114.5t19 -135t11.5 -122.5h6q2 41 9.5 94.5t17 106.5t17.5 93.5t11 55.5l105 457h432l96 -463
q9 -39 20.5 -99.5t22 -126t15.5 -118.5h6q4 55 12 125t18.5 136.5t20.5 110.5l100 435h377l-311 -1133h-418zM1132 1569q32 -47 79 -103.5t95 -108.5t82 -87v-29h-254q-53 31 -100 67.5t-100 82.5q-54 -46 -97.5 -81t-97.5 -69h-258v29q39 37 87.5 89t94.5 107.5t76 102.5
h393z" />
    <glyph glyph-name="Ycircumflex" unicode="&#x176;" horiz-adv-x="1360" 
d="M680 920l252 542h428l-481 -891v-571h-398v559l-481 903h430zM880 1899q32 -47 79 -103.5t95 -108.5t82 -87v-29h-254q-53 31 -100 67.5t-100 82.5q-54 -46 -97.5 -81t-97.5 -69h-258v29q39 37 87.5 89t94.5 107.5t76 102.5h393z" />
    <glyph glyph-name="ycircumflex" unicode="&#x177;" horiz-adv-x="1249" 
d="M-2 1133h412l192 -650q4 -14 8 -34.5t7 -43.5t4 -45h8q5 41 11.5 71.5t12.5 49.5l197 652h399l-448 -1205q-52 -138 -120.5 -231.5t-169 -141t-249.5 -47.5q-54 0 -92.5 5.5t-67.5 11.5v307q22 -4 54 -8t67 -4q65 0 105.5 26t66.5 68.5t45 91.5l4 10zM825 1569
q32 -47 79 -103.5t95 -108.5t82 -87v-29h-254q-53 31 -100 67.5t-100 82.5q-54 -46 -97.5 -81t-97.5 -69h-258v29q39 37 87.5 89t94.5 107.5t76 102.5h393z" />
    <glyph glyph-name="Ydieresis" unicode="&#x178;" horiz-adv-x="1360" 
d="M680 920l252 542h428l-481 -891v-571h-398v559l-481 903h430zM268 1743q0 82 49 120t121 38q69 0 120.5 -38t51.5 -120q0 -79 -51.5 -117.5t-120.5 -38.5q-72 0 -121 38.5t-49 117.5zM747 1743q0 82 49.5 120t122.5 38q70 0 121.5 -38t51.5 -120q0 -79 -51.5 -117.5
t-121.5 -38.5q-73 0 -122.5 38.5t-49.5 117.5z" />
    <glyph glyph-name="Zacute" unicode="&#x179;" horiz-adv-x="1251" 
d="M1200 0h-1139v244l633 899h-618v319h1108v-243l-633 -900h649v-319zM1132 1899v-21q-36 -29 -92 -70.5t-118.5 -86t-121 -84.5t-100.5 -66h-260v29q35 38 84 90.5t98 107.5t82 101h428z" />
    <glyph glyph-name="zacute" unicode="&#x17a;" horiz-adv-x="1038" 
d="M987 0h-938v223l469 611h-442v299h889v-242l-449 -592h471v-299zM1007 1569v-21q-36 -29 -92 -70.5t-118.5 -86t-121 -84.5t-100.5 -66h-260v29q35 38 84 90.5t98 107.5t82 101h428z" />
    <glyph glyph-name="Zdotaccent" unicode="&#x17b;" horiz-adv-x="1251" 
d="M1200 0h-1139v244l633 899h-618v319h1108v-243l-633 -900h649v-319zM647 1919q84 0 146.5 -35t62.5 -139q0 -101 -62.5 -136.5t-146.5 -35.5q-86 0 -146.5 35.5t-60.5 136.5q0 104 60.5 139t146.5 35z" />
    <glyph glyph-name="zdotaccent" unicode="&#x17c;" horiz-adv-x="1038" 
d="M987 0h-938v223l469 611h-442v299h889v-242l-449 -592h471v-299zM522 1589q84 0 146.5 -35t62.5 -139q0 -101 -62.5 -136.5t-146.5 -35.5q-86 0 -146.5 35.5t-60.5 136.5q0 104 60.5 139t146.5 35z" />
    <glyph glyph-name="Zcaron" unicode="&#x17d;" horiz-adv-x="1251" 
d="M1200 0h-1139v244l633 899h-618v319h1108v-243l-633 -900h649v-319zM453 1571q-30 47 -76 102.5t-94.5 107.5t-87.5 89v29h258q54 -34 97.5 -68.5t97.5 -81.5q53 47 100 83t100 67h254v-29q-34 -35 -82 -87t-95 -108.5t-79 -103.5h-393z" />
    <glyph glyph-name="zcaron" unicode="&#x17e;" horiz-adv-x="1038" 
d="M987 0h-938v223l469 611h-442v299h889v-242l-449 -592h471v-299zM328 1241q-30 47 -76 102.5t-94.5 107.5t-87.5 89v29h258q54 -34 97.5 -68.5t97.5 -81.5q53 47 100 83t100 67h254v-29q-34 -35 -82 -87t-95 -108.5t-79 -103.5h-393z" />
    <glyph glyph-name="longs" unicode="&#x17f;" horiz-adv-x="825" 
d="M635 1286q-66 0 -87.5 -37t-21.5 -112v-1137h-391v1145q0 177 51 267.5t144.5 122.5t220.5 32q106 0 184.5 -16t130.5 -38l-75 -260q-37 11 -73.5 22t-82.5 11z" />
    <glyph glyph-name="florin" unicode="&#x192;" horiz-adv-x="1137" 
d="M725 1567q86 0 172.5 -15.5t153.5 -38.5l-76 -258q-35 11 -70 18t-69 7q-52 0 -76.5 -33t-24.5 -110v-4h256v-293h-256v-924q0 -128 -43.5 -219.5t-128.5 -140t-209 -48.5q-53 0 -115.5 8.5t-99.5 20.5v301q31 -9 54 -13.5t57 -4.5q47 0 70.5 36.5t23.5 106.5v877h-149
v192l157 96v37q0 146 39.5 234t122 128t211.5 40z" />
    <glyph glyph-name="Ohorn" unicode="&#x1a0;" horiz-adv-x="1731" 
d="M1528 733q0 -169 -41 -307.5t-127 -238.5t-221.5 -153.5t-323.5 -53.5q-183 0 -317.5 53.5t-221.5 153t-129.5 238.5t-42.5 310q0 228 76.5 396.5t235.5 261t405 92.5q183 0 317.5 -50.5t219.5 -144.5q18 33 32.5 71t23.5 85.5t9 109.5h375l14 -22q-41 -199 -117.5 -305
t-205.5 -162q20 -75 29.5 -157.5t9.5 -176.5zM520 733q0 -132 30 -227t95.5 -146t169.5 -51q108 0 173 51t94.5 146t29.5 227q0 200 -67.5 314t-227.5 114q-105 0 -170.5 -51.5t-96 -147.5t-30.5 -229z" />
    <glyph glyph-name="ohorn" unicode="&#x1a1;" horiz-adv-x="1479" 
d="M1217 569q0 -189 -68.5 -320.5t-196 -200t-303.5 -68.5q-163 0 -290.5 68.5t-200 200t-72.5 320.5q0 281 152 432.5t417 151.5q116 0 222 -33.5t180 -101.5q33 16 56 54.5t35.5 96.5t12.5 131h377l14 -22q-18 -103 -53 -194.5t-109 -160t-210 -104.5q18 -55 27.5 -117
t9.5 -133zM485 569q0 -92 17 -154t54 -93t97 -31q59 0 95.5 31t53.5 93t17 154q0 93 -17 153.5t-53.5 90t-97.5 29.5q-89 0 -127.5 -67t-38.5 -206z" />
    <glyph glyph-name="Uhorn" unicode="&#x1af;" horiz-adv-x="1843" 
d="M1401 1462v-202q48 25 77.5 70.5t42.5 104t13 121.5h377l14 -22q-19 -90 -49.5 -171.5t-86.5 -148.5t-149.5 -113t-238.5 -65v-520q0 -151 -73 -272.5t-216 -192.5t-352 -71q-298 0 -454 148t-156 392v942h397v-897q0 -154 56.5 -205t168.5 -51q79 0 131 24.5t77.5 81
t25.5 152.5v895h395z" />
    <glyph glyph-name="uhorn" unicode="&#x1b0;" horiz-adv-x="1659" 
d="M1718 1298l15 -22q-18 -91 -46.5 -172t-81.5 -147t-141.5 -113t-226.5 -70v-774h-295l-49 141h-27q-35 -57 -89 -92.5t-118.5 -52t-132.5 -16.5q-110 0 -199.5 43t-141.5 135t-52 237v738h391v-619q0 -110 31.5 -167.5t103.5 -57.5q111 0 148 89.5t37 258.5v496h393v-134
q35 20 58 65t34.5 106.5t11.5 127.5h377z" />
    <glyph glyph-name="uni01EA" unicode="&#x1ea;" horiz-adv-x="1632" 
d="M1526 733q0 -169 -40.5 -307.5t-126.5 -238.5t-221 -153.5t-323 -53.5q-184 0 -318.5 53.5t-221.5 153t-129 238.5t-42 310q0 228 75.5 396.5t233.5 261t404 92.5q250 0 406.5 -93t229.5 -262t73 -397zM520 733q0 -132 30 -227t95 -146t170 -51q109 0 173.5 51t93 146
t28.5 227q0 198 -66 313t-227 115q-107 0 -172.5 -52t-95 -148t-29.5 -228zM838 -199q0 -37 21.5 -52t56.5 -15q26 0 61.5 6.5t56.5 15.5v-221q-34 -10 -76 -18.5t-98 -8.5q-116 0 -196 62.5t-80 169.5q0 46 20.5 94.5t71 102t141.5 114.5l154 -51q-69 -66 -101 -109
t-32 -90z" />
    <glyph glyph-name="uni01EB" unicode="&#x1eb;" horiz-adv-x="1305" 
d="M1217 569q0 -142 -39 -252t-113 -185t-179 -113.5t-237 -38.5q-123 0 -225.5 38.5t-178.5 113.5t-117.5 185t-41.5 252q0 188 68.5 318t196 198t304.5 68q163 0 290 -68t199.5 -198t72.5 -318zM483 569q0 -97 17 -163.5t54.5 -101t98.5 -34.5t97 34.5t52.5 101
t16.5 163.5t-16.5 162t-53 98t-98.5 33q-89 0 -128.5 -74t-39.5 -219zM658 -199q0 -37 21.5 -52t56.5 -15q26 0 61.5 6.5t56.5 15.5v-221q-34 -10 -76 -18.5t-98 -8.5q-116 0 -196 62.5t-80 169.5q0 46 20.5 94.5t71 102t141.5 114.5l154 -51q-69 -66 -101 -109t-32 -90z
" />
    <glyph glyph-name="uni01EC" unicode="&#x1ec;" horiz-adv-x="1632" 
d="M1526 733q0 -169 -40.5 -307.5t-126.5 -238.5t-221 -153.5t-323 -53.5q-184 0 -318.5 53.5t-221.5 153t-129 238.5t-42 310q0 228 75.5 396.5t233.5 261t404 92.5q250 0 406.5 -93t229.5 -262t73 -397zM520 733q0 -132 30 -227t95 -146t170 -51q109 0 173.5 51t93 146
t28.5 227q0 198 -66 313t-227 115q-107 0 -172.5 -52t-95 -148t-29.5 -228zM1188 1807v-236h-727v236h727zM834 -199q0 -37 21.5 -52t56.5 -15q26 0 61.5 6.5t56.5 15.5v-221q-34 -10 -76 -18.5t-98 -8.5q-116 0 -196 62.5t-80 169.5q0 46 20.5 94.5t71 102t141.5 114.5
l154 -51q-69 -66 -101 -109t-32 -90z" />
    <glyph glyph-name="uni01ED" unicode="&#x1ed;" horiz-adv-x="1305" 
d="M1217 569q0 -142 -39 -252t-113 -185t-179 -113.5t-237 -38.5q-123 0 -225.5 38.5t-178.5 113.5t-117.5 185t-41.5 252q0 188 68.5 318t196 198t304.5 68q163 0 290 -68t199.5 -198t72.5 -318zM483 569q0 -97 17 -163.5t54.5 -101t98.5 -34.5t97 34.5t52.5 101
t16.5 163.5t-16.5 162t-53 98t-98.5 33q-89 0 -128.5 -74t-39.5 -219zM1024 1477v-236h-727v236h727zM664 -199q0 -37 21.5 -52t56.5 -15q26 0 61.5 6.5t56.5 15.5v-221q-34 -10 -76 -18.5t-98 -8.5q-116 0 -196 62.5t-80 169.5q0 46 20.5 94.5t71 102t141.5 114.5l154 -51
q-69 -66 -101 -109t-32 -90z" />
    <glyph glyph-name="uni01F0" unicode="&#x1f0;" horiz-adv-x="664" 
d="M106 -492q-47 0 -108.5 7.5t-101.5 17.5v305q32 -9 59 -13.5t61 -4.5q48 0 83.5 33.5t35.5 136.5v1143h391v-1225q0 -102 -40 -193.5t-132 -149t-248 -57.5zM139 1241q-30 47 -76 102.5t-94.5 107.5t-87.5 89v29h258q54 -34 97.5 -68.5t97.5 -81.5q53 47 100 83t100 67
h254v-29q-34 -35 -82 -87t-95 -108.5t-79 -103.5h-393z" />
    <glyph glyph-name="Aringacute" unicode="&#x1fa;" horiz-adv-x="1483" 
d="M0 0l483 1405q-4 17 -6 36.5t-2 39.5q0 118 73 186t191 68q113 0 193 -68t80 -184q0 -22 -3 -43t-10 -39l488 -1401h-432l-78 274h-469l-74 -274h-434zM596 602h299l-64 209q-12 39 -29 99t-33 123.5t-26 113.5q-7 -37 -17 -80.5t-22 -89t-24 -88t-23 -78.5zM739 1397
q35 0 59.5 23.5t24.5 60.5q0 38 -24.5 61t-59.5 23t-59.5 -23t-24.5 -61q0 -37 21.5 -60.5t62.5 -23.5zM571 1790v25q29 19 61 44t62 52t51 51h431v-20q-16 -15 -58 -36t-95 -43.5t-104.5 -42t-87.5 -30.5h-260z" />
    <glyph glyph-name="aringacute" unicode="&#x1fb;" horiz-adv-x="1276" 
d="M688 1153q215 0 336 -106.5t121 -303.5v-743h-271l-75 150h-8q-48 -60 -98.5 -97.5t-115.5 -55t-159 -17.5q-98 0 -176 40t-123 122.5t-45 209.5q0 189 122 272.5t369 90.5l189 6v16q0 76 -37.5 108t-100.5 32q-67 0 -149.5 -23.5t-165.5 -60.5l-113 258q98 50 222 76
t278 26zM756 506l-90 -4q-108 -4 -150.5 -42t-42.5 -100q0 -58 30 -81t81 -23q71 0 121.5 45t50.5 117v88zM653 1542q-35 0 -59.5 -23t-24.5 -61q0 -37 21.5 -60.5t62.5 -23.5q35 0 59.5 23.5t24.5 60.5q0 38 -24.5 61t-59.5 23zM653 1712q75 0 137 -30.5t99 -87t37 -134.5
q0 -118 -79.5 -186t-193.5 -68q-118 0 -191 68t-73 184q0 119 73 186.5t191 67.5zM1030 1974v-12q-21 -23 -78.5 -60.5t-123 -75t-111.5 -61.5h-254v17q29 26 61 59.5t62 68.5t51 64h393z" />
    <glyph glyph-name="AEacute" unicode="&#x1fc;" horiz-adv-x="1937" 
d="M1839 0h-870v274h-437l-100 -274h-442l628 1462h1221v-317h-473v-230h438v-317h-438v-276h473v-322zM653 602h316v526h-111zM1569 1899v-21q-36 -29 -92 -70.5t-118.5 -86t-121 -84.5t-100.5 -66h-260v29q35 38 84 90.5t98 107.5t82 101h428z" />
    <glyph glyph-name="aeacute" unicode="&#x1fd;" horiz-adv-x="1915" 
d="M1337 1153q144 0 255 -57.5t174 -173t63 -289.5v-172h-696q5 -83 69.5 -143t190.5 -60q78 0 172.5 18.5t191.5 67.5v-281q-82 -43 -176 -63t-240 -20q-86 0 -165 20t-146 62.5t-119 107.5q-69 -72 -131.5 -113.5t-142.5 -59t-203 -17.5q-94 0 -176 40t-133 122.5
t-51 209.5q0 126 62 204t174 116t261 43l183 6v18q0 82 -41 110t-95 28q-67 0 -150 -21.5t-163 -58.5l-110 256q97 50 213.5 75t240.5 25q97 0 182 -23.5t154 -70.5q71 49 153.5 71.5t198.5 22.5zM756 506l-84 -4q-115 -3 -157 -42t-42 -104q0 -55 31 -77.5t82 -22.5
q46 0 84.5 20.5t62 57t23.5 84.5v88zM1315 887q-72 0 -120 -40t-56 -140h340q-1 49 -20 90t-55.5 65.5t-88.5 24.5zM1472 1569v-21q-36 -29 -92 -70.5t-118.5 -86t-121 -84.5t-100.5 -66h-260v29q35 38 84 90.5t98 107.5t82 101h428z" />
    <glyph glyph-name="Oslashacute" unicode="&#x1fe;" horiz-adv-x="1632" 
d="M1526 733q0 -169 -40.5 -307.5t-126.5 -238.5t-221 -153.5t-323 -53.5q-88 0 -164.5 10.5t-142.5 32.5l-84 -132l-193 125l84 125q-109 100 -160 251t-51 343q0 228 75.5 396.5t233.5 261t404 92.5q97 0 180 -14t150 -41l76 118l190 -114l-82 -125q101 -98 148 -245.5
t47 -330.5zM1110 733q0 62 -4.5 115t-13.5 96l-394 -620q25 -7 55 -11t62 -4q109 0 173.5 51t93 146t28.5 227zM520 733q0 -69 6 -129.5t23 -109.5l403 639q-29 12 -63.5 20t-71.5 8q-107 0 -172.5 -52t-95 -148t-29.5 -228zM1311 1899v-21q-36 -29 -92 -70.5t-118.5 -86
t-121 -84.5t-100.5 -66h-260v29q35 38 84 90.5t98 107.5t82 101h428z" />
    <glyph glyph-name="oslashacute" unicode="&#x1ff;" horiz-adv-x="1362" 
d="M1274 569q0 -189 -71.5 -320.5t-205 -200t-319.5 -68.5q-61 0 -119 9t-110 25l-84 -131l-170 107l79 123q-88 75 -138 190t-50 266q0 281 159 432.5t439 151.5q63 0 122.5 -10t111.5 -29l71 111l168 -105l-67 -104q86 -73 135 -186t49 -261zM461 569q0 -43 2.5 -79
t9.5 -68l289 448q-19 7 -39 10t-43 3q-121 0 -170 -79.5t-49 -234.5zM899 569q0 37 -2 70.5t-8 60.5l-283 -442q17 -4 35.5 -6t40.5 -2q83 0 130.5 36t67 107.5t19.5 175.5zM1171 1569v-21q-36 -29 -92 -70.5t-118.5 -86t-121 -84.5t-100.5 -66h-260v29q35 38 84 90.5
t98 107.5t82 101h428z" />
    <glyph glyph-name="uni0218" unicode="&#x218;" horiz-adv-x="1182" 
d="M1114 444q0 -119 -60 -225.5t-186.5 -172.5t-326.5 -66q-100 0 -175.5 9t-140.5 29.5t-135 53.5v352q119 -60 240 -91.5t219 -31.5q59 0 96.5 14t55.5 38.5t18 56.5q0 38 -26.5 64.5t-84.5 55.5t-153 72q-81 38 -146.5 78t-112 91.5t-71.5 120.5t-25 163
q0 141 69.5 236.5t194 143.5t287.5 48q143 0 257.5 -32t205.5 -73l-121 -305q-94 43 -185 68.5t-169 25.5q-51 0 -83.5 -12.5t-48 -33.5t-15.5 -48q0 -34 26.5 -61t89 -58.5t170.5 -81.5q107 -48 182 -103.5t114.5 -133t39.5 -191.5zM791 -125v-22q-24 -55 -48 -104
t-52.5 -97.5t-67.5 -104.5h-234v29q12 43 22 98t17 108.5t8 92.5h355z" />
    <glyph glyph-name="uni0219" unicode="&#x219;" horiz-adv-x="1059" 
d="M977 348q0 -108 -48 -191t-153.5 -130t-277.5 -47q-121 0 -216.5 13t-193.5 50v313q107 -49 218 -70.5t175 -21.5q66 0 96.5 14.5t30.5 43.5q0 25 -20.5 42.5t-73 40.5t-147.5 62q-94 39 -156.5 85t-93.5 110t-31 157q0 166 128 250t339 84q112 0 211 -24.5t205 -71.5
l-107 -252q-84 38 -170 61t-137 23q-46 0 -71 -12t-25 -35q0 -21 17.5 -37t66.5 -37t143 -59q99 -40 163.5 -85.5t96 -110.5t31.5 -165zM713 -125v-22q-24 -55 -48 -104t-52.5 -97.5t-67.5 -104.5h-234v29q12 43 22 98t17 108.5t8 92.5h355z" />
    <glyph glyph-name="uni021A" unicode="&#x21a;" horiz-adv-x="1210" 
d="M803 0h-395v1139h-357v323h1108v-323h-356v-1139zM805 -125v-22q-24 -55 -48 -104t-52.5 -97.5t-67.5 -104.5h-234v29q12 43 22 98t17 108.5t8 92.5h355z" />
    <glyph glyph-name="uni021B" unicode="&#x21b;" horiz-adv-x="942" 
d="M690 289q53 0 97 11t92 28v-285q-64 -28 -135.5 -45.5t-182.5 -17.5q-110 0 -194 34.5t-130.5 120t-46.5 238.5v467h-137v159l174 123l101 238h256v-227h278v-293h-278v-441q0 -55 28 -82.5t78 -27.5zM740 -125v-22q-24 -55 -48 -104t-52.5 -97.5t-67.5 -104.5h-234v29
q12 43 22 98t17 108.5t8 92.5h355z" />
    <glyph glyph-name="uni0237" unicode="&#x237;" horiz-adv-x="664" 
d="M106 -492q-47 0 -108.5 7.5t-101.5 17.5v305q32 -9 59 -13.5t61 -4.5q48 0 83.5 33.5t35.5 136.5v1143h391v-1225q0 -102 -40 -193.5t-132 -149t-248 -57.5z" />
    <glyph glyph-name="uni0259" unicode="&#x259;" horiz-adv-x="1266" 
d="M584 1153q171 0 306 -61t212.5 -189t77.5 -330q0 -203 -70.5 -334.5t-196 -195t-292.5 -63.5q-165 0 -285 57.5t-185 172.5t-65 288v174h698q-4 89 -66 145.5t-181 56.5q-106 0 -194.5 -20.5t-182.5 -65.5v281q81 35 178.5 59.5t245.5 24.5zM776 426h-336q1 -50 20.5 -91
t56 -65t89.5 -24q69 0 116 43t54 137z" />
    <glyph glyph-name="uni02BC" unicode="&#x2bc;" horiz-adv-x="512" 
d="M477 1460l15 -22q-18 -74 -47 -176.5t-62.5 -205.5t-67.5 -179h-278q15 70 29.5 146.5t27.5 153.5t23.5 149.5t17.5 133.5h342z" />
    <glyph glyph-name="circumflex" unicode="&#x2c6;" horiz-adv-x="1071" 
d="M733 1569q32 -47 79 -103.5t95 -108.5t82 -87v-29h-254q-53 31 -100 67.5t-100 82.5q-54 -46 -97.5 -81t-97.5 -69h-258v29q39 37 87.5 89t94.5 107.5t76 102.5h393z" />
    <glyph glyph-name="caron" unicode="&#x2c7;" horiz-adv-x="1071" 
d="M340 1241q-30 47 -76 102.5t-94.5 107.5t-87.5 89v29h258q54 -34 97.5 -68.5t97.5 -81.5q53 47 100 83t100 67h254v-29q-34 -35 -82 -87t-95 -108.5t-79 -103.5h-393z" />
    <glyph glyph-name="macron" unicode="&#x2c9;" horiz-adv-x="891" 
d="M809 1477v-236h-727v236h727z" />
    <glyph glyph-name="breve" unicode="&#x2d8;" horiz-adv-x="973" 
d="M891 1612q-7 -111 -56.5 -194.5t-138.5 -130t-213 -46.5q-195 0 -294 99.5t-107 271.5h211q15 -57 37.5 -85t59.5 -37t93 -9q44 0 81.5 10.5t65.5 39t42 81.5h219z" />
    <glyph glyph-name="dotaccent" unicode="&#x2d9;" horiz-adv-x="580" 
d="M289 1589q84 0 146.5 -35t62.5 -139q0 -101 -62.5 -136.5t-146.5 -35.5q-86 0 -146.5 35.5t-60.5 136.5q0 104 60.5 139t146.5 35z" />
    <glyph glyph-name="ring" unicode="&#x2da;" horiz-adv-x="700" 
d="M346 1237q-118 0 -191 67.5t-73 184.5q0 119 73 186.5t191 67.5q113 0 192.5 -67.5t79.5 -184.5q0 -118 -79 -186t-193 -68zM346 1405q35 0 59.5 23.5t24.5 60.5q0 38 -24.5 61t-59.5 23t-59.5 -23t-24.5 -61q0 -37 21.5 -60.5t62.5 -23.5z" />
    <glyph glyph-name="ogonek" unicode="&#x2db;" horiz-adv-x="614" 
d="M336 -199q0 -37 21.5 -52t56.5 -15q26 0 61.5 6.5t56.5 15.5v-221q-34 -10 -76 -18.5t-98 -8.5q-116 0 -196 62.5t-80 169.5q0 46 20.5 94.5t71 102t141.5 114.5l154 -51q-69 -66 -101 -109t-32 -90z" />
    <glyph glyph-name="tilde" unicode="&#x2dc;" horiz-adv-x="1006" 
d="M82 1237q6 94 25.5 159t51 105.5t76 59t99.5 18.5q38 0 81 -14.5t87 -33.5t86.5 -33.5t81.5 -14.5q18 0 39.5 17t31.5 81h183q-13 -184 -80.5 -263t-165.5 -79q-45 0 -90.5 14.5t-89.5 33.5t-85 33.5t-79 14.5q-19 0 -39 -16t-33 -82h-180z" />
    <glyph glyph-name="hungarumlaut" unicode="&#x2dd;" horiz-adv-x="1206" 
d="M1124 1569v-21q-16 -27 -61 -67.5t-103 -85.5t-115 -86t-97 -68h-203v29q29 39 67.5 91.5t76.5 107t63 100.5h372zM659 1569v-21q-16 -27 -61 -67.5t-103 -85.5t-114.5 -86t-95.5 -68h-203v29q29 39 67 91.5t76 107t64 100.5h370z" />
    <glyph glyph-name="uni02F3" unicode="&#x2f3;" horiz-adv-x="670" 
d="M328 -600q-118 0 -191.5 67.5t-73.5 184.5q0 116 73.5 184t191.5 68q112 0 191 -67.5t79 -182.5q0 -118 -77.5 -186t-192.5 -68zM330 -432q35 0 59.5 23.5t24.5 60.5t-23.5 60.5t-60.5 23.5q-35 0 -58.5 -23.5t-23.5 -60.5t20 -60.5t62 -23.5z" />
    <glyph glyph-name="gravecomb" unicode="&#x300;" 
d="M-715 1569q35 -46 83.5 -101t97 -107.5t81.5 -90.5v-29h-260q-42 26 -100 66t-121 84.5t-118.5 86t-92.5 70.5v21h430z" />
    <glyph glyph-name="acutecomb" unicode="&#x301;" 
d="M-105 1569v-21q-36 -29 -92 -70.5t-118.5 -86t-121 -84.5t-100.5 -66h-260v29q35 38 84 90.5t98 107.5t82 101h428z" />
    <glyph glyph-name="uni0302" unicode="&#x302;" 
d="M186 1569q32 -47 79 -103.5t95 -108.5t82 -87v-29h-254q-53 31 -100 67.5t-100 82.5q-54 -46 -97.5 -81t-97.5 -69h-258v29q39 37 87.5 89t94.5 107.5t76 102.5h393z" />
    <glyph glyph-name="tildecomb" unicode="&#x303;" 
d="M-1180 1237q6 94 25.5 159t51 105.5t76 59t99.5 18.5q38 0 81 -14.5t87 -33.5t86.5 -33.5t81.5 -14.5q18 0 39.5 17t31.5 81h183q-13 -184 -80.5 -263t-165.5 -79q-45 0 -90.5 14.5t-89.5 33.5t-85 33.5t-79 14.5q-19 0 -39 -16t-33 -82h-180z" />
    <glyph glyph-name="uni0304" unicode="&#x304;" 
d="M363 1477v-236h-727v236h727z" />
    <glyph glyph-name="uni0306" unicode="&#x306;" 
d="M406 1612q-7 -111 -56.5 -194.5t-138.5 -130t-213 -46.5q-195 0 -294 99.5t-107 271.5h211q15 -57 37.5 -85t59.5 -37t93 -9q44 0 81.5 10.5t65.5 39t42 81.5h219z" />
    <glyph glyph-name="uni0307" unicode="&#x307;" 
d="M0 1589q84 0 146.5 -35t62.5 -139q0 -101 -62.5 -136.5t-146.5 -35.5q-86 0 -146.5 35.5t-60.5 136.5q0 104 60.5 139t146.5 35z" />
    <glyph glyph-name="uni0308" unicode="&#x308;" 
d="M-414 1413q0 82 49 120t121 38q69 0 120.5 -38t51.5 -120q0 -79 -51.5 -117.5t-120.5 -38.5q-72 0 -121 38.5t-49 117.5zM65 1413q0 82 49.5 120t122.5 38q70 0 121.5 -38t51.5 -120q0 -79 -51.5 -117.5t-121.5 -38.5q-73 0 -122.5 38.5t-49.5 117.5z" />
    <glyph glyph-name="hookabovecomb" unicode="&#x309;" 
d="M-406 1483q0 -77 -41.5 -132.5t-127.5 -78.5l-11 -47h-207l-28 129q66 8 89 29.5t23 58.5q0 29 -20 46t-51 17q-38 0 -67 -6.5t-71 -21.5v204q36 13 99.5 22t120.5 9q149 0 220.5 -62.5t71.5 -166.5z" />
    <glyph glyph-name="uni030A" unicode="&#x30a;" 
d="M-33 1237q-118 0 -191 67.5t-73 184.5q0 119 73 186.5t191 67.5q113 0 192.5 -67.5t79.5 -184.5q0 -118 -79 -186t-193 -68zM-33 1405q35 0 59.5 23.5t24.5 60.5q0 38 -24.5 61t-59.5 23t-59.5 -23t-24.5 -61q0 -37 21.5 -60.5t62.5 -23.5z" />
    <glyph glyph-name="uni030B" unicode="&#x30b;" 
d="M669 1569v-21q-16 -27 -61 -67.5t-103 -85.5t-115 -86t-97 -68h-203v29q29 39 67.5 91.5t76.5 107t63 100.5h372zM204 1569v-21q-16 -27 -61 -67.5t-103 -85.5t-114.5 -86t-95.5 -68h-203v29q29 39 67 91.5t76 107t64 100.5h370z" />
    <glyph glyph-name="uni030C" unicode="&#x30c;" 
d="M-207 1241q-30 47 -76 102.5t-94.5 107.5t-87.5 89v29h258q54 -34 97.5 -68.5t97.5 -81.5q53 47 100 83t100 67h254v-29q-34 -35 -82 -87t-95 -108.5t-79 -103.5h-393z" />
    <glyph glyph-name="uni030F" unicode="&#x30f;" 
d="M-473 1569q22 -46 51.5 -100.5t62 -107t60.5 -91.5v-29h-203q-34 27 -81 68t-94 86t-84.5 85.5t-53.5 67.5v21h342zM-895 1569q22 -46 51 -100.5t61 -107t60 -91.5v-29h-203q-34 27 -80.5 68t-93.5 86t-84 85.5t-53 67.5v21h342z" />
    <glyph glyph-name="uni0312" unicode="&#x312;" 
d="M-209 877l-15 22q19 74 47.5 176.5t62 206t67.5 178.5h278q-19 -93 -38.5 -197t-35 -204t-24.5 -182h-342z" />
    <glyph glyph-name="dotbelowcomb" unicode="&#x323;" 
d="M-748 -479q-85 0 -145.5 35.5t-60.5 136.5q0 104 60.5 139t145.5 35t147 -35t62 -139q0 -101 -62 -136.5t-147 -35.5z" />
    <glyph glyph-name="uni0326" unicode="&#x326;" 
d="M210 -125v-22q-24 -55 -48 -104t-52.5 -97.5t-67.5 -104.5h-234v29q12 43 22 98t17 108.5t8 92.5h355z" />
    <glyph glyph-name="uni0327" unicode="&#x327;" 
d="M248 -252q0 -109 -75 -174.5t-200 -65.5q-70 0 -127 11t-94 24v193q34 -11 66.5 -17t66.5 -6q38 0 60 16t22 42q0 35 -33.5 55.5t-111.5 34.5l61 139h195l-19 -61q41 -9 85 -29t74 -58t30 -104z" />
    <glyph glyph-name="uni0328" unicode="&#x328;" 
d="M29 -199q0 -37 21.5 -52t56.5 -15q26 0 61.5 6.5t56.5 15.5v-221q-34 -10 -76 -18.5t-98 -8.5q-116 0 -196 62.5t-80 169.5q0 46 20.5 94.5t71 102t141.5 114.5l154 -51q-69 -66 -101 -109t-32 -90z" />
    <glyph glyph-name="tonos" unicode="&#x384;" horiz-adv-x="1108" 
d="M406 1241v33q10 35 21 80t21 94t19 96t14 84h344v-26q-26 -58 -55.5 -116t-63.5 -118t-75 -127h-225z" />
    <glyph glyph-name="dieresistonos" unicode="&#x385;" horiz-adv-x="1157" 
d="M807 1716v-20q-19 -46 -45.5 -95.5t-59 -102.5t-69.5 -109h-172v28q7 39 15.5 93t15.5 109t8 97h307zM268 1571q69 0 112.5 -38t43.5 -120q0 -79 -43.5 -117.5t-112.5 -38.5q-72 0 -112.5 38.5t-40.5 117.5q0 82 40.5 120t112.5 38zM887 1571q71 0 113 -38t42 -120
q0 -79 -42 -117.5t-113 -38.5q-74 0 -116 38.5t-42 117.5q0 82 42 120t116 38z" />
    <glyph glyph-name="Alphatonos" unicode="&#x386;" horiz-adv-x="1569" 
d="M1137 0l-72 274h-475l-74 -274h-434l477 1468h527l483 -1468h-432zM983 598l-63 240q-10 39 -29 111.5t-37.5 150t-28.5 127.5q-9 -50 -25.5 -123.5t-34 -145.5t-30.5 -120l-63 -240h311zM15 1155v33q10 35 21 80t21 94t19 96t14 84h344v-26q-26 -58 -55.5 -116
t-63.5 -118t-75 -127h-225z" />
    <glyph glyph-name="anoteleia" unicode="&#x387;" horiz-adv-x="592" 
d="M86 954q0 106 62.5 149t150.5 43q83 0 144 -43t61 -149q0 -101 -61 -146t-144 -45q-88 0 -150.5 45t-62.5 146z" />
    <glyph glyph-name="Epsilontonos" unicode="&#x388;" horiz-adv-x="1411" 
d="M1313 0h-868v1462h868v-317h-473v-230h438v-317h-438v-276h473v-322zM-14 1155v33q10 35 21 80t21 94t19 96t14 84h344v-26q-26 -58 -55.5 -116t-63.5 -118t-75 -127h-225z" />
    <glyph glyph-name="Etatonos" unicode="&#x389;" horiz-adv-x="1855" 
d="M1698 0h-397v596h-459v-596h-397v1462h397v-542h459v542h397v-1462zM-14 1155v33q10 35 21 80t21 94t19 96t14 84h344v-26q-26 -58 -55.5 -116t-63.5 -118t-75 -127h-225z" />
    <glyph glyph-name="Iotatonos" unicode="&#x38a;" horiz-adv-x="1010" 
d="M455 0v1462h397v-1462h-397zM-14 1155v33q10 35 21 80t21 94t19 96t14 84h344v-26q-26 -58 -55.5 -116t-63.5 -118t-75 -127h-225z" />
    <glyph glyph-name="Omicrontonos" unicode="&#x38c;" horiz-adv-x="1786" 
d="M1680 733q0 -169 -40.5 -307.5t-126.5 -238.5t-221 -153.5t-323 -53.5q-184 0 -318.5 53.5t-221.5 153t-129 238.5t-42 310q0 228 75.5 396.5t233.5 261t404 92.5q250 0 406.5 -93t229.5 -262t73 -397zM674 733q0 -132 30 -227t95 -146t170 -51q109 0 173.5 51t93 146
t28.5 227q0 198 -66 313t-227 115q-107 0 -172.5 -52t-95 -148t-29.5 -228zM-14 1155v33q10 35 21 80t21 94t19 96t14 84h344v-26q-26 -58 -55.5 -116t-63.5 -118t-75 -127h-225z" />
    <glyph glyph-name="Upsilontonos" unicode="&#x38e;" horiz-adv-x="1776" 
d="M1096 920l252 542h428l-481 -891v-571h-398v559l-481 903h430zM-14 1155v33q10 35 21 80t21 94t19 96t14 84h344v-26q-26 -58 -55.5 -116t-63.5 -118t-75 -127h-225z" />
    <glyph glyph-name="Omegatonos" unicode="&#x38f;" horiz-adv-x="1806" 
d="M991 1161q-84 0 -154 -39t-111.5 -119.5t-41.5 -205.5q0 -105 20.5 -183.5t67 -138.5t125.5 -110v-365h-672v324h373q-107 52 -178.5 138.5t-106.5 191t-35 210.5q0 195 89 334t249.5 213t374.5 74q212 0 372.5 -74.5t250.5 -213t90 -331.5q0 -109 -34.5 -211.5
t-107 -187.5t-186.5 -143h381v-324h-678v365q83 52 131 113t68 140t20 183q0 123 -41.5 203t-111.5 118.5t-154 38.5zM-14 1155v33q10 35 21 80t21 94t19 96t14 84h344v-26q-26 -58 -55.5 -116t-63.5 -118t-75 -127h-225z" />
    <glyph glyph-name="iotadieresistonos" unicode="&#x390;" horiz-adv-x="891" 
d="M524 1133v-744q0 -63 36.5 -82.5t80.5 -19.5q56 0 102 10.5t107 32.5v-287q-58 -28 -134.5 -45.5t-174.5 -17.5q-115 0 -207.5 34t-146.5 119t-54 238v762h391zM578 1716v-20q-19 -46 -45.5 -95.5t-59 -102.5t-69.5 -109h-172v28q7 39 15.5 93t15.5 109t8 97h307z
M39 1571q69 0 112.5 -38t43.5 -120q0 -79 -43.5 -117.5t-112.5 -38.5q-72 0 -112.5 38.5t-40.5 117.5q0 82 40.5 120t112.5 38zM658 1571q71 0 113 -38t42 -120q0 -79 -42 -117.5t-113 -38.5q-74 0 -116 38.5t-42 117.5q0 82 42 120t116 38z" />
    <glyph glyph-name="Alpha" unicode="&#x391;" horiz-adv-x="1487" 
d="M1055 0l-72 274h-475l-74 -274h-434l477 1468h527l483 -1468h-432zM901 598l-63 240q-10 39 -29 111.5t-37.5 150t-28.5 127.5q-9 -50 -25.5 -123.5t-34 -145.5t-30.5 -120l-63 -240h311z" />
    <glyph glyph-name="Beta" unicode="&#x392;" horiz-adv-x="1380" 
d="M158 1462h510q317 0 452 -94t135 -270q0 -96 -34.5 -163t-87 -106t-107.5 -53v-10q60 -15 119.5 -49.5t99 -103t39.5 -185.5q0 -133 -67.5 -229t-192.5 -147.5t-297 -51.5h-569v1462zM553 901h119q98 0 138 40.5t40 98.5q0 60 -45.5 91.5t-140.5 31.5h-111v-262zM553 612
v-307h139q103 0 144 44.5t41 111.5q0 39 -17.5 73.5t-59.5 56t-116 21.5h-131z" />
    <glyph glyph-name="Gamma" unicode="&#x393;" horiz-adv-x="1184" 
d="M1133 1462v-319h-578v-1143h-397v1462h975z" />
    <glyph glyph-name="uni0394" unicode="&#x394;" horiz-adv-x="1446" 
d="M958 1473l455 -1252v-221h-1380v223l459 1250h466zM983 324l-227 694q-6 19 -12.5 42t-11.5 49t-9 52q-4 -26 -9.5 -52.5t-11 -49.5t-10.5 -41l-227 -694h518z" />
    <glyph glyph-name="Epsilon" unicode="&#x395;" horiz-adv-x="1124" 
d="M1026 0h-868v1462h868v-317h-473v-230h438v-317h-438v-276h473v-322z" />
    <glyph glyph-name="Zeta" unicode="&#x396;" horiz-adv-x="1251" 
d="M1200 0h-1139v244l633 899h-618v319h1108v-243l-633 -900h649v-319z" />
    <glyph glyph-name="Eta" unicode="&#x397;" horiz-adv-x="1569" 
d="M1411 0h-397v596h-459v-596h-397v1462h397v-542h459v542h397v-1462z" />
    <glyph glyph-name="Theta" unicode="&#x398;" horiz-adv-x="1632" 
d="M1022 893v-299h-412v299h412zM1526 733q0 -169 -40.5 -307.5t-126.5 -238.5t-221 -153.5t-323 -53.5q-184 0 -318.5 53.5t-221.5 153t-129 238.5t-42 310q0 228 75.5 396.5t233.5 261t404 92.5q250 0 406.5 -93t229.5 -262t73 -397zM520 733q0 -132 30 -227t95 -146
t170 -51q109 0 173.5 51t93 146t28.5 227q0 198 -66 313t-227 115q-107 0 -172.5 -52t-95 -148t-29.5 -228z" />
    <glyph glyph-name="Iota" unicode="&#x399;" horiz-adv-x="713" 
d="M158 0v1462h397v-1462h-397z" />
    <glyph glyph-name="Kappa" unicode="&#x39a;" horiz-adv-x="1407" 
d="M1407 0h-446l-289 559l-117 -70v-489h-397v1462h397v-635q25 48 57.5 96t63.5 91l307 448h432l-461 -655z" />
    <glyph glyph-name="Lambda" unicode="&#x39b;" horiz-adv-x="1421" 
d="M944 1462l477 -1462h-444l-199 741q-10 42 -24.5 107.5t-27 131t-15.5 105.5q-4 -40 -15 -104.5t-24.5 -129t-26.5 -106.5l-203 -745h-442l479 1462h465z" />
    <glyph glyph-name="Mu" unicode="&#x39c;" horiz-adv-x="1980" 
d="M795 0l-299 1053h-9q4 -41 8.5 -111t8.5 -151t4 -156v-635h-350v1462h526l305 -1038h8l299 1038h527v-1462h-363v641q0 69 2.5 148.5t6 150t6.5 111.5h-9l-295 -1051h-376z" />
    <glyph glyph-name="Nu" unicode="&#x39d;" horiz-adv-x="1708" 
d="M1550 0h-518l-534 1030h-9q5 -47 9 -113t7 -134.5t3 -123.5v-659h-350v1462h516l532 -1016h6q-3 48 -6 111.5t-5.5 128.5t-2.5 115v661h352v-1462z" />
    <glyph glyph-name="Xi" unicode="&#x39e;" horiz-adv-x="1176" 
d="M80 0v322h1016v-322h-1016zM203 598v317h770v-317h-770zM121 1145v317h934v-317h-934z" />
    <glyph glyph-name="Omicron" unicode="&#x39f;" horiz-adv-x="1632" 
d="M1526 733q0 -169 -40.5 -307.5t-126.5 -238.5t-221 -153.5t-323 -53.5q-184 0 -318.5 53.5t-221.5 153t-129 238.5t-42 310q0 228 75.5 396.5t233.5 261t404 92.5q250 0 406.5 -93t229.5 -262t73 -397zM520 733q0 -132 30 -227t95 -146t170 -51q109 0 173.5 51t93 146
t28.5 227q0 198 -66 313t-227 115q-107 0 -172.5 -52t-95 -148t-29.5 -228z" />
    <glyph glyph-name="Pi" unicode="&#x3a0;" horiz-adv-x="1513" 
d="M158 0v1462h1198v-1462h-398v1139h-403v-1139h-397z" />
    <glyph glyph-name="Rho" unicode="&#x3a1;" horiz-adv-x="1294" 
d="M664 1462q278 0 416.5 -121t138.5 -344q0 -100 -28.5 -192t-93 -164t-171 -114t-262.5 -42h-111v-485h-395v1462h506zM655 1143h-102v-336h78q51 0 95 17.5t70.5 57t26.5 105.5q0 69 -41 112.5t-127 43.5z" />
    <glyph glyph-name="Sigma" unicode="&#x3a3;" horiz-adv-x="1233" 
d="M74 0v307l444 461l-432 397v297h1012v-317h-336q-41 0 -79.5 0.5t-77 2.5t-79.5 7l422 -385l-444 -461q66 6 122 9.5t130 3.5h401v-322h-1083z" />
    <glyph glyph-name="Tau" unicode="&#x3a4;" horiz-adv-x="1210" 
d="M803 0h-395v1139h-357v323h1108v-323h-356v-1139z" />
    <glyph glyph-name="Upsilon" unicode="&#x3a5;" horiz-adv-x="1360" 
d="M680 920l252 542h428l-481 -891v-571h-398v559l-481 903h430z" />
    <glyph glyph-name="Phi" unicode="&#x3a6;" horiz-adv-x="1831" 
d="M1106 1483v-180q231 0 374 -76.5t209 -201.5t66 -269q0 -110 -35 -209t-112 -176t-201 -121.5t-301 -44.5v-225h-381v225q-180 0 -304 42.5t-200 118t-110.5 176t-34.5 216.5q0 103 33 200t108 175t200 124t308 46v180h381zM725 1001q-106 0 -163.5 -34.5t-79 -89.5
t-21.5 -119q0 -72 19.5 -129.5t76.5 -91t168 -33.5v497zM1106 1001v-497q108 0 165 33.5t78 91t21 129.5q0 66 -23.5 121t-81 88.5t-159.5 33.5z" />
    <glyph glyph-name="Chi" unicode="&#x3a7;" horiz-adv-x="1481" 
d="M1475 0h-457l-285 457l-282 -457h-447l485 748l-456 714h438l264 -452l254 452h451l-463 -745z" />
    <glyph glyph-name="Psi" unicode="&#x3a8;" horiz-adv-x="1905" 
d="M1792 1462v-477q0 -154 -34.5 -264t-111 -180t-200.5 -104.5t-303 -39.5v-397h-381v397q-179 5 -303 36t-200.5 96t-111 170.5t-34.5 258.5v504h389v-499q0 -92 27 -144.5t84.5 -74t148.5 -21.5v739h381v-739q81 0 139.5 23t89.5 74.5t31 137.5v504h389z" />
    <glyph glyph-name="uni03A9" unicode="&#x3a9;" horiz-adv-x="1630" 
d="M815 1161q-84 0 -154 -39t-111.5 -119.5t-41.5 -205.5q0 -105 20.5 -183.5t67 -138.5t125.5 -110v-365h-672v324h373q-107 52 -178.5 138.5t-106.5 191t-35 210.5q0 195 89 334t249.5 213t374.5 74q212 0 372.5 -74.5t250.5 -213t90 -331.5q0 -109 -34.5 -211.5
t-107 -187.5t-186.5 -143h381v-324h-678v365q83 52 131 113t68 140t20 183q0 123 -41.5 203t-111.5 118.5t-154 38.5z" />
    <glyph glyph-name="Iotadieresis" unicode="&#x3aa;" horiz-adv-x="713" 
d="M158 0v1462h397v-1462h-397zM-56 1743q0 82 49 120t121 38q69 0 120.5 -38t51.5 -120q0 -79 -51.5 -117.5t-120.5 -38.5q-72 0 -121 38.5t-49 117.5zM423 1743q0 82 49.5 120t122.5 38q70 0 121.5 -38t51.5 -120q0 -79 -51.5 -117.5t-121.5 -38.5q-73 0 -122.5 38.5
t-49.5 117.5z" />
    <glyph glyph-name="Upsilondieresis" unicode="&#x3ab;" horiz-adv-x="1360" 
d="M680 920l252 542h428l-481 -891v-571h-398v559l-481 903h430zM268 1743q0 82 49 120t121 38q69 0 120.5 -38t51.5 -120q0 -79 -51.5 -117.5t-120.5 -38.5q-72 0 -121 38.5t-49 117.5zM747 1743q0 82 49.5 120t122.5 38q70 0 121.5 -38t51.5 -120q0 -79 -51.5 -117.5
t-121.5 -38.5q-73 0 -122.5 38.5t-49.5 117.5z" />
    <glyph glyph-name="alphatonos" unicode="&#x3ac;" horiz-adv-x="1376" 
d="M649 283q65 0 102.5 29t54 89t17.5 152v10q0 135 -38.5 209t-139.5 74q-79 0 -120.5 -74.5t-41.5 -212.5q0 -135 42 -205.5t124 -70.5zM516 -20q-193 0 -311.5 148.5t-118.5 432.5q0 292 125.5 440t331.5 148q116 0 190 -41t121 -127h16q10 35 27 78t43 74h328
q-15 -43 -35 -113.5t-34.5 -161t-14.5 -194.5v-256q0 -73 25 -97t57 -24q14 0 33 3.5t26 6.5v-291q-10 -6 -39 -12t-61.5 -10t-55.5 -4q-121 0 -192.5 36t-118.5 131h-24q-30 -46 -74.5 -84t-105 -60.5t-138.5 -22.5zM560 1241v33q10 35 21 80t21 94t19 96t14 84h344v-26
q-26 -58 -55.5 -116t-63.5 -118t-75 -127h-225z" />
    <glyph glyph-name="epsilontonos" unicode="&#x3ad;" horiz-adv-x="1135" 
d="M842 715v-254h-148q-100 0 -151.5 -11t-69.5 -31.5t-18 -51.5q0 -18 13 -41t57.5 -39.5t136.5 -16.5q127 0 229 28t172 60v-299q-86 -37 -190.5 -58t-268.5 -21q-295 0 -418 88.5t-123 253.5q0 98 69 172.5t204 93.5v10q-92 25 -148.5 90.5t-56.5 157.5q0 112 67.5 179
t181.5 97.5t253 30.5q128 0 228.5 -21.5t201.5 -64.5l-111 -264q-78 35 -149.5 53t-153.5 18q-79 0 -114 -20t-35 -55q0 -43 49 -63.5t170 -20.5h123zM494 1241v33q10 35 21 80t21 94t19 96t14 84h344v-26q-26 -58 -55.5 -116t-63.5 -118t-75 -127h-225z" />
    <glyph glyph-name="etatonos" unicode="&#x3ae;" horiz-adv-x="1372" 
d="M844 1153q112 0 201.5 -43.5t142.5 -135t53 -237.5v-1229h-391v1137q0 92 -32.5 146.5t-104.5 54.5q-74 0 -114.5 -40.5t-56.5 -118.5t-16 -191v-496h-391v1133h295l49 -140h23q36 58 89.5 93t118.5 51t134 16zM570 1241v33q10 35 21 80t21 94t19 96t14 84h344v-26
q-26 -58 -55.5 -116t-63.5 -118t-75 -127h-225z" />
    <glyph glyph-name="iotatonos" unicode="&#x3af;" horiz-adv-x="891" 
d="M524 1133v-744q0 -63 36.5 -82.5t80.5 -19.5q56 0 102 10.5t107 32.5v-287q-58 -28 -134.5 -45.5t-174.5 -17.5q-115 0 -207.5 34t-146.5 119t-54 238v762h391zM209 1241v33q10 35 21 80t21 94t19 96t14 84h344v-26q-26 -58 -55.5 -116t-63.5 -118t-75 -127h-225z" />
    <glyph glyph-name="upsilondieresistonos" unicode="&#x3b0;" horiz-adv-x="1358" 
d="M676 -16q-213 0 -331.5 71t-166 192t-47.5 271v615h391v-635q0 -114 39.5 -160.5t122.5 -46.5q91 0 137.5 68.5t46.5 258.5q0 126 -19.5 248t-57.5 267h395q26 -95 42 -179.5t24 -167.5t8 -176q0 -324 -148.5 -475t-435.5 -151zM916 1716v-20q-19 -46 -45.5 -95.5
t-59 -102.5t-69.5 -109h-172v28q7 39 15.5 93t15.5 109t8 97h307zM377 1571q69 0 112.5 -38t43.5 -120q0 -79 -43.5 -117.5t-112.5 -38.5q-72 0 -112.5 38.5t-40.5 117.5q0 82 40.5 120t112.5 38zM996 1571q71 0 113 -38t42 -120q0 -79 -42 -117.5t-113 -38.5
q-74 0 -116 38.5t-42 117.5q0 82 42 120t116 38z" />
    <glyph glyph-name="alpha" unicode="&#x3b1;" horiz-adv-x="1376" 
d="M649 283q65 0 102.5 29t54 89t17.5 152v10q0 135 -38.5 209t-139.5 74q-79 0 -120.5 -74.5t-41.5 -212.5q0 -135 42 -205.5t124 -70.5zM516 -20q-193 0 -311.5 148.5t-118.5 432.5q0 292 125.5 440t331.5 148q116 0 190 -41t121 -127h16q10 35 27 78t43 74h328
q-15 -43 -35 -113.5t-34.5 -161t-14.5 -194.5v-256q0 -73 25 -97t57 -24q14 0 33 3.5t26 6.5v-291q-10 -6 -39 -12t-61.5 -10t-55.5 -4q-121 0 -192.5 36t-118.5 131h-24q-30 -46 -74.5 -84t-105 -60.5t-138.5 -22.5z" />
    <glyph glyph-name="beta" unicode="&#x3b2;" horiz-adv-x="1403" 
d="M702 1567q153 0 272.5 -44t188 -131.5t68.5 -220.5q0 -147 -73.5 -232.5t-207.5 -107.5v-8q166 -21 268.5 -107t102.5 -272q0 -145 -61 -249t-169.5 -159.5t-250.5 -55.5q-85 0 -169.5 15t-144.5 44v-531h-391v1588q0 165 75.5 269t204 153t287.5 49zM690 1276
q-45 0 -82 -18t-59.5 -64.5t-22.5 -132.5v-721q28 -20 85 -36.5t106 -16.5q95 0 151 48.5t56 145.5q0 67 -31.5 104t-79 52.5t-94.5 15.5h-57v291h38q73 0 107.5 49t34.5 121q0 77 -42 119.5t-110 42.5z" />
    <glyph glyph-name="gamma" unicode="&#x3b3;" horiz-adv-x="1235" 
d="M1241 1133l-418 -1119q-31 -83 -53 -174t-33.5 -177t-11.5 -155h-412q0 57 13 143t35 181.5t49 179.5l-412 1121h408l116 -367q18 -57 36 -121t32 -127.5t20 -120.5h8q5 31 16 82.5t29.5 119.5t45.5 149l125 385h407z" />
    <glyph glyph-name="delta" unicode="&#x3b4;" horiz-adv-x="1303" 
d="M717 1575q137 0 261 -29t241 -86l-146 -282q-101 50 -191.5 78t-158.5 28q-64 0 -92.5 -16.5t-28.5 -48.5q0 -26 23 -49.5t80 -57.5t159 -92q125 -69 203 -149.5t114 -177t36 -214.5q0 -167 -71.5 -278t-200 -166t-300.5 -55q-161 0 -287.5 53.5t-199 156t-72.5 248.5
q0 107 36.5 195.5t115.5 156t208 109.5q-72 47 -120.5 102t-72.5 118t-24 132q0 146 119.5 235t368.5 89zM655 750q-35 -11 -75.5 -46.5t-68.5 -96t-28 -146.5q0 -54 19.5 -97.5t56.5 -68.5t90 -25t91 25t58.5 72.5t20.5 113.5q0 86 -47 153t-117 116z" />
    <glyph glyph-name="epsilon" unicode="&#x3b5;" horiz-adv-x="1135" 
d="M842 715v-254h-148q-100 0 -151.5 -11t-69.5 -31.5t-18 -51.5q0 -18 13 -41t57.5 -39.5t136.5 -16.5q127 0 229 28t172 60v-299q-86 -37 -190.5 -58t-268.5 -21q-295 0 -418 88.5t-123 253.5q0 98 69 172.5t204 93.5v10q-92 25 -148.5 90.5t-56.5 157.5q0 112 67.5 179
t181.5 97.5t253 30.5q128 0 228.5 -21.5t201.5 -64.5l-111 -264q-78 35 -149.5 53t-153.5 18q-79 0 -114 -20t-35 -55q0 -43 49 -63.5t170 -20.5h123z" />
    <glyph glyph-name="zeta" unicode="&#x3b6;" horiz-adv-x="1044" 
d="M1061 -18q0 -94 -38.5 -179.5t-100.5 -167.5h-400q50 54 83.5 106.5t51 94.5t17.5 62q0 28 -17.5 47t-67.5 37.5t-149 42.5q-150 36 -226 98t-102 149.5t-26 198.5q0 101 30 202.5t93.5 203.5t162.5 205t236 206q-22 -7 -52 -12t-60 -7.5t-54 -2.5h-301v290h897v-231
q-163 -133 -271 -247.5t-170 -215t-88 -192.5t-26 -181q0 -59 24.5 -95.5t85.5 -60.5t169 -48q116 -24 181 -68.5t91.5 -104t26.5 -130.5z" />
    <glyph glyph-name="eta" unicode="&#x3b7;" horiz-adv-x="1372" 
d="M844 1153q112 0 201.5 -43.5t142.5 -135t53 -237.5v-1229h-391v1137q0 92 -32.5 146.5t-104.5 54.5q-74 0 -114.5 -40.5t-56.5 -118.5t-16 -191v-496h-391v1133h295l49 -140h23q36 58 89.5 93t118.5 51t134 16z" />
    <glyph glyph-name="theta" unicode="&#x3b8;" horiz-adv-x="1315" 
d="M1229 780q0 -250 -57 -429.5t-183.5 -275t-333.5 -95.5q-287 0 -428 212t-141 588q0 251 56 430t181.5 274t331.5 95q287 0 430.5 -209.5t143.5 -589.5zM655 254q88 0 130.5 97.5t45.5 289.5h-348q2 -189 43.5 -288t128.5 -99zM659 1305q-85 0 -126 -96.5t-46 -293.5h347
q-7 197 -48.5 293.5t-126.5 96.5z" />
    <glyph glyph-name="iota" unicode="&#x3b9;" horiz-adv-x="891" 
d="M524 1133v-744q0 -63 36.5 -82.5t80.5 -19.5q56 0 102 10.5t107 32.5v-287q-58 -28 -134.5 -45.5t-174.5 -17.5q-115 0 -207.5 34t-146.5 119t-54 238v762h391z" />
    <glyph glyph-name="kappa" unicode="&#x3ba;" horiz-adv-x="1350" 
d="M1331 1133l-405 -496l424 -637h-441l-252 399l-129 -98v-301h-393v1133h393v-246q0 -85 -3.5 -145.5t-6.5 -98.5h8q19 26 49.5 73t71.5 101l246 316h438z" />
    <glyph glyph-name="lambda" unicode="&#x3bb;" horiz-adv-x="1362" 
d="M0 0l487 1057l-14 41q-37 104 -89 134t-112 30q-29 0 -66 -4.5t-69 -12.5v307q19 5 54 8.5t72.5 6t62.5 2.5q139 0 232.5 -38t156.5 -119.5t110 -211.5l246 -688q37 -102 66.5 -150t60 -61.5t70.5 -13.5q15 0 34 2t41 8v-283q-17 -9 -58.5 -16.5t-86.5 -12.5t-72 -5
q-105 0 -174 41.5t-111.5 108t-70.5 140.5l-70 191q-10 31 -18.5 58.5t-14.5 51.5t-10.5 44.5t-7.5 37.5h-8q-7 -49 -21 -102.5t-28 -87.5l-186 -463h-406z" />
    <glyph glyph-name="uni03BC" unicode="&#x3bc;" horiz-adv-x="1376" 
d="M1241 1133v-1133h-293l-53 152h-16q-22 -58 -55.5 -96.5t-73.5 -57t-84 -18.5q-55 0 -87.5 20t-60.5 63h-4q3 -28 6 -69t4.5 -84.5t1.5 -81.5v-320h-391v1625h391v-615q0 -115 33.5 -172t112.5 -57q67 0 105 40t54.5 118t16.5 190v496h393z" />
    <glyph glyph-name="nu" unicode="&#x3bd;" horiz-adv-x="1270" 
d="M0 1133h401l205 -639q6 -18 12.5 -42.5t12.5 -50t10 -49.5h10q49 90 83.5 195t53.5 246t19 340h391q0 -214 -42 -404t-138.5 -369t-261.5 -360h-328z" />
    <glyph glyph-name="xi" unicode="&#x3be;" horiz-adv-x="1057" 
d="M86 426q0 94 31.5 166t94 125.5t155.5 91.5v8q-72 16 -120 48.5t-72.5 80.5t-24.5 109q0 47 21 92t68 80t123 51q-28 -3 -54 -5.5t-57.5 -4.5t-76.5 -2h-55v290h891v-290h-164q-60 0 -115 -8.5t-98.5 -29t-68.5 -56t-25 -89.5q0 -64 50 -99.5t185 -35.5h162v-286h-160
q-123 0 -186 -27t-85 -70t-22 -92q0 -45 18 -77.5t75 -58t174 -50.5q116 -24 184 -69t97.5 -105t29.5 -131q0 -94 -38.5 -179.5t-100.5 -167.5h-400q50 54 83.5 106.5t51 94.5t17.5 62q0 28 -15 48t-56 36.5t-120 33.5q-138 31 -225.5 87t-129.5 137t-42 186z" />
    <glyph glyph-name="omicron" unicode="&#x3bf;" horiz-adv-x="1305" 
d="M1217 569q0 -142 -39 -252t-113 -185t-179 -113.5t-237 -38.5q-123 0 -225.5 38.5t-178.5 113.5t-117.5 185t-41.5 252q0 188 68.5 318t196 198t304.5 68q163 0 290 -68t199.5 -198t72.5 -318zM483 569q0 -97 17 -163.5t54.5 -101t98.5 -34.5t97 34.5t52.5 101
t16.5 163.5t-16.5 162t-53 98t-98.5 33q-89 0 -128.5 -74t-39.5 -219z" />
    <glyph glyph-name="pi" unicode="&#x3c0;" horiz-adv-x="1628" 
d="M1393 287q34 0 77.5 9.5t77.5 25.5v-269q-47 -29 -129.5 -51t-173.5 -22q-179 0 -258.5 95.5t-79.5 276.5v490h-252v-842h-391v842h-241v166l200 125h1325v-291h-250v-447q0 -58 28 -83t67 -25z" />
    <glyph glyph-name="rho" unicode="&#x3c1;" horiz-adv-x="1331" 
d="M1245 565q0 -185 -54.5 -316t-154.5 -200t-237 -69q-76 0 -149 18t-124 49h-26q8 -47 15 -124t7 -142v-273h-391v1051q0 183 65 316t190.5 205.5t307.5 72.5q158 0 282.5 -70t196.5 -201.5t72 -316.5zM688 862q-81 0 -123.5 -62.5t-42.5 -187.5v-254q31 -37 78 -56
t90 -19q82 0 120 62.5t38 219.5t-38.5 227t-121.5 70z" />
    <glyph glyph-name="uni03C2" unicode="&#x3c2;" horiz-adv-x="1092" 
d="M668 1153q98 0 198.5 -23.5t198.5 -70.5l-111 -287q-79 34 -156.5 54t-129.5 20q-97 0 -141 -80t-44 -215q0 -69 20 -119.5t80 -85.5t179 -61q116 -24 181 -68.5t91.5 -104t26.5 -130.5q0 -94 -38.5 -179.5t-100.5 -167.5h-400q50 54 83.5 106.5t51 94.5t17.5 62
q0 28 -17 47t-67 37.5t-150 42.5q-76 18 -141 51.5t-112.5 93t-74 153.5t-26.5 234q0 194 68.5 326.5t199 201t314.5 68.5z" />
    <glyph glyph-name="sigma" unicode="&#x3c3;" horiz-adv-x="1395" 
d="M1245 477q0 -145 -67 -257.5t-196.5 -176t-317.5 -63.5q-173 0 -303.5 63.5t-202.5 185t-72 295.5q0 199 69 334.5t219 205t392 69.5h575v-291h-278q91 -66 136.5 -156t45.5 -209zM485 526q0 -66 19.5 -119.5t60 -84.5t103.5 -31q94 0 137 66t43 180q0 79 -12.5 130
t-35.5 91t-55 84h-22q-124 0 -181 -71t-57 -245z" />
    <glyph glyph-name="tau" unicode="&#x3c4;" horiz-adv-x="1083" 
d="M1018 1133v-291h-334v-447q0 -52 26.5 -80t73.5 -28q50 0 95.5 11.5t97.5 31.5v-285q-57 -28 -134 -45.5t-171 -17.5q-115 0 -200 33t-132 118t-47 240v469h-270v166l194 125h801z" />
    <glyph glyph-name="upsilon" unicode="&#x3c5;" horiz-adv-x="1358" 
d="M676 -16q-213 0 -331.5 71t-166 192t-47.5 271v615h391v-635q0 -114 39.5 -160.5t122.5 -46.5q91 0 137.5 68.5t46.5 258.5q0 126 -19.5 248t-57.5 267h395q26 -95 42 -179.5t24 -167.5t8 -176q0 -324 -148.5 -475t-435.5 -151z" />
    <glyph glyph-name="phi" unicode="&#x3c6;" horiz-adv-x="1733" 
d="M317 1167l291 -176q-67 -91 -104 -208t-37 -234q0 -75 23 -128t67 -87t107 -51v405q0 232 110.5 345.5t339.5 113.5q164 0 283.5 -64.5t184.5 -186t65 -292.5q0 -186 -78 -317t-216 -204.5t-319 -90.5v-484h-370v484q-172 12 -302.5 79.5t-203 188.5t-72.5 295
q0 182 60.5 329t170.5 283zM1120 856q-49 0 -67.5 -34.5t-18.5 -119.5v-419q86 7 134.5 55t68.5 119t20 145q0 77 -14.5 134t-45 88.5t-77.5 31.5z" />
    <glyph glyph-name="chi" unicode="&#x3c7;" horiz-adv-x="1323" 
d="M272 1151q107 0 179.5 -28t123 -91.5t91.5 -171.5l41 -106l188 379h408l-422 -752l180 -455q13 -33 31 -58t42 -38.5t54 -13.5q18 0 41.5 2t64.5 12v-281q-58 -21 -109.5 -31t-131.5 -10q-89 0 -156 32.5t-114.5 100t-80.5 171.5l-73 223l-244 -527h-438l508 900
l-119 313q-28 72 -63.5 97.5t-73.5 25.5q-26 0 -56.5 -4.5t-76.5 -20.5v293q43 16 94 27.5t112 11.5z" />
    <glyph glyph-name="psi" unicode="&#x3c8;" horiz-adv-x="1831" 
d="M1108 1554v-1263q81 8 135.5 35t81.5 87t27 167q0 132 -23 270t-67 283h376q51 -155 73 -289.5t22 -270.5q0 -209 -83.5 -335.5t-225 -185.5t-316.5 -68v-476h-371v476q-179 6 -315.5 63t-213.5 180.5t-77 329.5v576h381v-586q0 -97 27 -150.5t77.5 -76.5t120.5 -29v1263
h371z" />
    <glyph glyph-name="omega" unicode="&#x3c9;" horiz-adv-x="1872" 
d="M1667 1133q37 -100 60.5 -191t35 -185t11.5 -206q0 -165 -54.5 -294t-164 -203t-275.5 -74q-141 0 -219.5 57.5t-118.5 171.5h-12q-38 -111 -117.5 -170t-222.5 -59q-165 0 -274 74t-163.5 203t-54.5 294q0 112 11.5 206t35.5 185t60 191h399q-64 -129 -94.5 -275
t-30.5 -291q0 -164 35.5 -224t108.5 -60q46 0 74 18.5t40.5 70.5t12.5 154v275h372v-275q0 -99 11.5 -151.5t39 -72t76.5 -19.5q60 0 91 39.5t42 102.5t11 136q0 143 -30 293t-95 279h399z" />
    <glyph glyph-name="iotadieresis" unicode="&#x3ca;" horiz-adv-x="891" 
d="M524 1133v-744q0 -63 36.5 -82.5t80.5 -19.5q56 0 102 10.5t107 32.5v-287q-58 -28 -134.5 -45.5t-174.5 -17.5q-115 0 -207.5 34t-146.5 119t-54 238v762h391zM-68 1413q0 82 49 120t121 38q69 0 120.5 -38t51.5 -120q0 -79 -51.5 -117.5t-120.5 -38.5q-72 0 -121 38.5
t-49 117.5zM411 1413q0 82 49.5 120t122.5 38q70 0 121.5 -38t51.5 -120q0 -79 -51.5 -117.5t-121.5 -38.5q-73 0 -122.5 38.5t-49.5 117.5z" />
    <glyph glyph-name="upsilondieresis" unicode="&#x3cb;" horiz-adv-x="1358" 
d="M676 -16q-213 0 -331.5 71t-166 192t-47.5 271v615h391v-635q0 -114 39.5 -160.5t122.5 -46.5q91 0 137.5 68.5t46.5 258.5q0 126 -19.5 248t-57.5 267h395q26 -95 42 -179.5t24 -167.5t8 -176q0 -324 -148.5 -475t-435.5 -151zM270 1413q0 82 49 120t121 38
q69 0 120.5 -38t51.5 -120q0 -79 -51.5 -117.5t-120.5 -38.5q-72 0 -121 38.5t-49 117.5zM749 1413q0 82 49.5 120t122.5 38q70 0 121.5 -38t51.5 -120q0 -79 -51.5 -117.5t-121.5 -38.5q-73 0 -122.5 38.5t-49.5 117.5z" />
    <glyph glyph-name="omicrontonos" unicode="&#x3cc;" horiz-adv-x="1305" 
d="M1217 569q0 -142 -39 -252t-113 -185t-179 -113.5t-237 -38.5q-123 0 -225.5 38.5t-178.5 113.5t-117.5 185t-41.5 252q0 188 68.5 318t196 198t304.5 68q163 0 290 -68t199.5 -198t72.5 -318zM483 569q0 -97 17 -163.5t54.5 -101t98.5 -34.5t97 34.5t52.5 101
t16.5 163.5t-16.5 162t-53 98t-98.5 33q-89 0 -128.5 -74t-39.5 -219zM519 1241v33q10 35 21 80t21 94t19 96t14 84h344v-26q-26 -58 -55.5 -116t-63.5 -118t-75 -127h-225z" />
    <glyph glyph-name="upsilontonos" unicode="&#x3cd;" horiz-adv-x="1358" 
d="M676 -16q-213 0 -331.5 71t-166 192t-47.5 271v615h391v-635q0 -114 39.5 -160.5t122.5 -46.5q91 0 137.5 68.5t46.5 258.5q0 126 -19.5 248t-57.5 267h395q26 -95 42 -179.5t24 -167.5t8 -176q0 -324 -148.5 -475t-435.5 -151zM547 1241v33q10 35 21 80t21 94t19 96
t14 84h344v-26q-26 -58 -55.5 -116t-63.5 -118t-75 -127h-225z" />
    <glyph glyph-name="omegatonos" unicode="&#x3ce;" horiz-adv-x="1872" 
d="M1667 1133q37 -100 60.5 -191t35 -185t11.5 -206q0 -165 -54.5 -294t-164 -203t-275.5 -74q-141 0 -219.5 57.5t-118.5 171.5h-12q-38 -111 -117.5 -170t-222.5 -59q-165 0 -274 74t-163.5 203t-54.5 294q0 112 11.5 206t35.5 185t60 191h399q-64 -129 -94.5 -275
t-30.5 -291q0 -164 35.5 -224t108.5 -60q46 0 74 18.5t40.5 70.5t12.5 154v275h372v-275q0 -99 11.5 -151.5t39 -72t76.5 -19.5q60 0 91 39.5t42 102.5t11 136q0 143 -30 293t-95 279h399zM807 1241v33q10 35 21 80t21 94t19 96t14 84h344v-26q-26 -58 -55.5 -116
t-63.5 -118t-75 -127h-225z" />
    <glyph glyph-name="uni03D1" unicode="&#x3d1;" horiz-adv-x="1440" 
d="M692 1575q152 0 258 -48t174.5 -131t107 -189.5t56.5 -223.5h131v-270h-108v-21.5v-21.5q0 -124 -34 -246t-108.5 -222.5t-195 -161t-293.5 -60.5q-138 0 -226.5 37.5t-138.5 97.5t-70 129t-20 133q0 15 0.5 27t1 23.5t0.5 21.5q0 30 -9 48.5t-34 18.5q-19 0 -45.5 -10.5
t-42.5 -20.5l-98 205q74 45 169 80t210 35q81 0 143 -45.5t62 -138.5q0 -35 -2.5 -65.5t-4.5 -58t-2 -53.5q0 -78 38.5 -126t117.5 -48q55 0 98.5 37t69 121.5t25.5 226.5v34.5t-2 35.5q-238 22 -384 89t-213 168.5t-67 223.5q0 102 43 185.5t139 133.5t254 50zM719 1284
q-40 0 -61 -23.5t-21 -58.5q0 -42 24.5 -84t83.5 -72.5t160 -37.5q-10 68 -27 119.5t-40.5 86t-53.5 52.5t-65 18z" />
    <glyph glyph-name="uni03D2" unicode="&#x3d2;" horiz-adv-x="1376" 
d="M680 936q31 65 58 121t53 104.5t53 92.5t57 85q34 48 74 78t91 44t116 14q44 0 95 -8.5t95 -26.5v-287q-9 3 -31.5 8.5t-44.5 5.5q-32 0 -63 -17.5t-66 -62.5q-31 -40 -66.5 -93.5t-72.5 -120.5t-73 -144.5t-70 -165.5v-563h-398v559l-487 903h430z" />
    <glyph glyph-name="uni03D6" unicode="&#x3d6;" horiz-adv-x="2179" 
d="M2118 1133v-291h-242q14 -48 25.5 -99t18.5 -103t7 -105q0 -169 -54.5 -293.5t-164 -193t-274.5 -68.5q-143 0 -220.5 64t-117.5 165h-13q-41 -101 -119 -165t-221 -64q-248 0 -369.5 151t-121.5 404q0 53 5.5 104.5t17 102.5t28.5 100h-242v166l195 125h1862zM1493 842
h-809q-15 -40 -26.5 -91.5t-18 -105t-6.5 -100.5q0 -151 32.5 -206.5t110.5 -55.5q88 0 107.5 72.5t19.5 195.5v113h373v-113q0 -77 5 -137.5t31.5 -95.5t88.5 -35q75 0 110 54.5t35 199.5q0 47 -7 96t-18.5 101.5t-27.5 107.5z" />
    <glyph glyph-name="uni0400" unicode="&#x400;" horiz-adv-x="1124" 
d="M1026 0h-868v1462h868v-317h-473v-230h438v-317h-438v-276h473v-322zM590 1899q35 -46 83.5 -101t97 -107.5t81.5 -90.5v-29h-260q-42 26 -100 66t-121 84.5t-118.5 86t-92.5 70.5v21h430z" />
    <glyph glyph-name="uni0401" unicode="&#x401;" horiz-adv-x="1124" 
d="M1026 0h-868v1462h868v-317h-473v-230h438v-317h-438v-276h473v-322zM180 1743q0 82 49 120t121 38q69 0 120.5 -38t51.5 -120q0 -79 -51.5 -117.5t-120.5 -38.5q-72 0 -121 38.5t-49 117.5zM659 1743q0 82 49.5 120t122.5 38q70 0 121.5 -38t51.5 -120
q0 -79 -51.5 -117.5t-121.5 -38.5q-73 0 -122.5 38.5t-49.5 117.5z" />
    <glyph glyph-name="uni0402" unicode="&#x402;" horiz-adv-x="1696" 
d="M1167 -20q-50 0 -103 6t-91 22v305q31 -13 68.5 -21.5t66.5 -8.5q33 0 54 12t30.5 34.5t9.5 55.5v139q0 54 -29 81.5t-92 27.5h-276v-633h-397v1139h-357v323h1147v-323h-393v-183h287q248 0 376.5 -109.5t128.5 -301.5v-121q0 -209 -101.5 -326.5t-328.5 -117.5z" />
    <glyph glyph-name="uni0403" unicode="&#x403;" horiz-adv-x="1184" 
d="M1133 1462v-319h-578v-1143h-397v1462h975zM1159 1899v-21q-36 -29 -92 -70.5t-118.5 -86t-121 -84.5t-100.5 -66h-260v29q35 38 84 90.5t98 107.5t82 101h428z" />
    <glyph glyph-name="uni0404" unicode="&#x404;" horiz-adv-x="1372" 
d="M838 1155q-67 0 -121.5 -16t-95.5 -50t-67 -86t-36 -124h580v-301h-580q5 -64 27 -114t62 -84.5t99.5 -52.5t137.5 -18q118 0 215 24t205 62v-327q-88 -39 -204 -63.5t-245 -24.5q-248 0 -405 93t-231.5 260.5t-74.5 393.5q0 164 46 301.5t137.5 239t228.5 157.5t318 56
q146 0 265 -34t210 -75l-127 -321q-82 46 -159.5 75t-184.5 29z" />
    <glyph glyph-name="uni0405" unicode="&#x405;" horiz-adv-x="1182" 
d="M1114 444q0 -119 -60 -225.5t-186.5 -172.5t-326.5 -66q-100 0 -175.5 9t-140.5 29.5t-135 53.5v352q119 -60 240 -91.5t219 -31.5q59 0 96.5 14t55.5 38.5t18 56.5q0 38 -26.5 64.5t-84.5 55.5t-153 72q-81 38 -146.5 78t-112 91.5t-71.5 120.5t-25 163
q0 141 69.5 236.5t194 143.5t287.5 48q143 0 257.5 -32t205.5 -73l-121 -305q-94 43 -185 68.5t-169 25.5q-51 0 -83.5 -12.5t-48 -33.5t-15.5 -48q0 -34 26.5 -61t89 -58.5t170.5 -81.5q107 -48 182 -103.5t114.5 -133t39.5 -191.5z" />
    <glyph glyph-name="uni0406" unicode="&#x406;" horiz-adv-x="713" 
d="M158 0v1462h397v-1462h-397z" />
    <glyph glyph-name="uni0407" unicode="&#x407;" horiz-adv-x="713" 
d="M158 0v1462h397v-1462h-397zM-56 1743q0 82 49 120t121 38q69 0 120.5 -38t51.5 -120q0 -79 -51.5 -117.5t-120.5 -38.5q-72 0 -121 38.5t-49 117.5zM423 1743q0 82 49.5 120t122.5 38q70 0 121.5 -38t51.5 -120q0 -79 -51.5 -117.5t-121.5 -38.5q-73 0 -122.5 38.5
t-49.5 117.5z" />
    <glyph glyph-name="uni0408" unicode="&#x408;" horiz-adv-x="721" 
d="M43 -459q-67 0 -117.5 6.5t-87.5 14.5v307q32 -6 68 -13.5t78 -7.5q71 0 110.5 29t55.5 87t16 145v1353h397v-1319q0 -220 -66 -352t-183 -191t-271 -59z" />
    <glyph glyph-name="uni0409" unicode="&#x409;" horiz-adv-x="2111" 
d="M180 -20q-44 0 -82 6t-73 16v305q27 -9 50 -14.5t48 -5.5q33 0 58.5 19t48 83t44.5 197q8 43 21 128.5t29.5 202.5t34 256t34.5 289h969v-516h143q188 0 309.5 -57t180.5 -158.5t59 -234.5q0 -231 -156 -363.5t-434 -132.5h-497v1139h-240q-6 -66 -15 -145.5
t-19.5 -164.5t-23 -169t-25.5 -160t-26 -135q-26 -121 -76.5 -207t-137.5 -132t-224 -46zM1362 313h108q97 0 143 42.5t46 121.5q0 51 -23.5 85.5t-64.5 52.5t-92 18h-117v-320z" />
    <glyph glyph-name="uni040A" unicode="&#x40a;" horiz-adv-x="2066" 
d="M158 0v1462h397v-518h363v518h395v-516h143q188 0 309.5 -57t180.5 -158.5t59 -234.5q0 -231 -156 -363.5t-434 -132.5h-497v627h-363v-627h-397zM1313 313h108q97 0 143 42.5t46 121.5q0 51 -23.5 85.5t-64.5 52.5t-92 18h-117v-320z" />
    <glyph glyph-name="uni040B" unicode="&#x40b;" horiz-adv-x="1704" 
d="M1198 1462v-323h-393v-183h287q248 0 376.5 -109.5t128.5 -301.5v-545h-395v524q0 54 -29 81.5t-92 27.5h-276v-633h-397v1139h-357v323h1147z" />
    <glyph glyph-name="uni040C" unicode="&#x40c;" horiz-adv-x="1427" 
d="M1436 0h-447l-434 741v-741h-397v1462h397v-708l418 708h434l-451 -698zM1243 1899v-21q-36 -29 -92 -70.5t-118.5 -86t-121 -84.5t-100.5 -66h-260v29q35 38 84 90.5t98 107.5t82 101h428z" />
    <glyph glyph-name="uni040D" unicode="&#x40d;" horiz-adv-x="1731" 
d="M158 1462h368v-669q0 -45 -1 -94.5t-3 -97.5t-5 -91t-7 -76h8l602 1028h453v-1462h-369v633q0 41 1.5 93t4 107t6 106t7.5 89h-9l-602 -1028h-454v1462zM909 1899q35 -46 83.5 -101t97 -107.5t81.5 -90.5v-29h-260q-42 26 -100 66t-121 84.5t-118.5 86t-92.5 70.5v21h430
z" />
    <glyph glyph-name="uni040E" unicode="&#x40e;" horiz-adv-x="1395" 
d="M1419 1462l-444 -1026q-65 -151 -140 -252.5t-189.5 -152.5t-299.5 -51q-50 0 -121.5 7t-134.5 23v330q56 -22 121 -29.5t117 -7.5q55 0 89.5 17.5t54.5 44t30 51.5l-477 1046h426l180 -446q14 -34 33 -83.5t36.5 -100.5t26.5 -89h12q12 49 33 112t42 119t30 81l149 407
h426zM1218 1952q-12 -112 -65 -198t-158 -134.5t-272 -48.5q-162 0 -267 42t-159 126.5t-64 212.5h326q6 -109 48 -147.5t116 -38.5q66 0 111 40t53 146h331z" />
    <glyph glyph-name="uni040F" unicode="&#x40f;" horiz-adv-x="1516" 
d="M1358 0h-408v-455h-385v455h-407v1462h397v-1138h406v1138h397v-1462z" />
    <glyph glyph-name="uni0410" unicode="&#x410;" horiz-adv-x="1487" 
d="M1055 0l-72 274h-475l-74 -274h-434l477 1468h527l483 -1468h-432zM901 598l-63 240q-10 39 -29 111.5t-37.5 150t-28.5 127.5q-9 -50 -25.5 -123.5t-34 -145.5t-30.5 -120l-63 -240h311z" />
    <glyph glyph-name="uni0411" unicode="&#x411;" horiz-adv-x="1325" 
d="M158 0v1462h962v-317h-567v-199h143q188 0 309.5 -57t180.5 -158.5t59 -234.5q0 -231 -156 -363.5t-434 -132.5h-497zM553 313h109q97 0 142.5 42.5t45.5 121.5q0 51 -23.5 85.5t-64.5 52.5t-92 18h-117v-320z" />
    <glyph glyph-name="uni0412" unicode="&#x412;" horiz-adv-x="1380" 
d="M158 1462h510q317 0 452 -94t135 -270q0 -96 -34.5 -163t-87 -106t-107.5 -53v-10q60 -15 119.5 -49.5t99 -103t39.5 -185.5q0 -133 -67.5 -229t-192.5 -147.5t-297 -51.5h-569v1462zM553 901h119q98 0 138 40.5t40 98.5q0 60 -45.5 91.5t-140.5 31.5h-111v-262zM553 612
v-307h139q103 0 144 44.5t41 111.5q0 39 -17.5 73.5t-59.5 56t-116 21.5h-131z" />
    <glyph glyph-name="uni0413" unicode="&#x413;" horiz-adv-x="1184" 
d="M1133 1462v-319h-578v-1143h-397v1462h975z" />
    <glyph glyph-name="uni0414" unicode="&#x414;" horiz-adv-x="1667" 
d="M1430 1462v-1138h200v-779h-385v455h-852v-455h-385v779h121q68 115 123 247t96.5 277t68 299.5t38.5 314.5h975zM1032 1139h-260q-10 -107 -29 -211.5t-47.5 -206.5t-65.5 -201t-83 -196h485v815z" />
    <glyph glyph-name="uni0415" unicode="&#x415;" horiz-adv-x="1124" 
d="M1026 0h-868v1462h868v-317h-473v-230h438v-317h-438v-276h473v-322z" />
    <glyph glyph-name="uni0416" unicode="&#x416;" horiz-adv-x="2101" 
d="M455 764l-426 698h426l405 -708v708h381v-708l408 708h426l-430 -698l464 -764h-436l-432 741v-741h-381v741l-432 -741h-436z" />
    <glyph glyph-name="uni0417" unicode="&#x417;" horiz-adv-x="1364" 
d="M1212 1120q0 -145 -88.5 -232t-255.5 -116v-8q203 -17 301.5 -108.5t98.5 -237.5q0 -128 -70.5 -227t-207.5 -155t-337 -56q-190 0 -327.5 22t-229.5 57v340q61 -30 141.5 -51.5t163.5 -33t150 -11.5q170 0 240.5 36t70.5 116q0 74 -84.5 110.5t-251.5 36.5h-172v320h154
q126 0 192.5 14t90.5 42t24 71q0 52 -48.5 81t-162.5 29q-91 0 -180.5 -24.5t-169.5 -77.5l-166 272q83 54 168 88t187 50t237 16q165 0 284.5 -47t183.5 -128.5t64 -187.5z" />
    <glyph glyph-name="uni0418" unicode="&#x418;" horiz-adv-x="1731" 
d="M158 1462h368v-669q0 -45 -1 -94.5t-3 -97.5t-5 -91t-7 -76h8l602 1028h453v-1462h-369v633q0 41 1.5 93t4 107t6 106t7.5 89h-9l-602 -1028h-454v1462z" />
    <glyph glyph-name="uni0419" unicode="&#x419;" horiz-adv-x="1731" 
d="M158 1462h368v-669q0 -45 -1 -94.5t-3 -97.5t-5 -91t-7 -76h8l602 1028h453v-1462h-369v633q0 41 1.5 93t4 107t6 106t7.5 89h-9l-602 -1028h-454v1462zM1407 1952q-12 -112 -65 -198t-158 -134.5t-272 -48.5q-162 0 -267 42t-159 126.5t-64 212.5h326q6 -109 48 -147.5
t116 -38.5q66 0 111 40t53 146h331z" />
    <glyph glyph-name="uni041A" unicode="&#x41a;" horiz-adv-x="1427" 
d="M1436 0h-447l-434 741v-741h-397v1462h397v-708l418 708h434l-451 -698z" />
    <glyph glyph-name="uni041B" unicode="&#x41b;" horiz-adv-x="1561" 
d="M1403 0h-397v1139h-279q-7 -82 -19 -184.5t-26.5 -210t-30.5 -206.5t-33 -173q-26 -121 -76.5 -207t-137.5 -132t-224 -46q-44 0 -82 6t-73 16v305q27 -9 50 -14.5t48 -5.5q33 0 58.5 19t48 83t44.5 197q8 43 21 128.5t29.5 202.5t34 256t34.5 289h1010v-1462z" />
    <glyph glyph-name="uni041C" unicode="&#x41c;" horiz-adv-x="1980" 
d="M795 0l-299 1053h-9q4 -41 8.5 -111t8.5 -151t4 -156v-635h-350v1462h526l305 -1038h8l299 1038h527v-1462h-363v641q0 69 2.5 148.5t6 150t6.5 111.5h-9l-295 -1051h-376z" />
    <glyph glyph-name="uni041D" unicode="&#x41d;" horiz-adv-x="1569" 
d="M1411 0h-397v596h-459v-596h-397v1462h397v-542h459v542h397v-1462z" />
    <glyph glyph-name="uni041E" unicode="&#x41e;" horiz-adv-x="1632" 
d="M1526 733q0 -169 -40.5 -307.5t-126.5 -238.5t-221 -153.5t-323 -53.5q-184 0 -318.5 53.5t-221.5 153t-129 238.5t-42 310q0 228 75.5 396.5t233.5 261t404 92.5q250 0 406.5 -93t229.5 -262t73 -397zM520 733q0 -132 30 -227t95 -146t170 -51q109 0 173.5 51t93 146
t28.5 227q0 198 -66 313t-227 115q-107 0 -172.5 -52t-95 -148t-29.5 -228z" />
    <glyph glyph-name="uni041F" unicode="&#x41f;" horiz-adv-x="1513" 
d="M158 0v1462h1198v-1462h-398v1139h-403v-1139h-397z" />
    <glyph glyph-name="uni0420" unicode="&#x420;" horiz-adv-x="1294" 
d="M664 1462q278 0 416.5 -121t138.5 -344q0 -100 -28.5 -192t-93 -164t-171 -114t-262.5 -42h-111v-485h-395v1462h506zM655 1143h-102v-336h78q51 0 95 17.5t70.5 57t26.5 105.5q0 69 -41 112.5t-127 43.5z" />
    <glyph glyph-name="uni0421" unicode="&#x421;" horiz-adv-x="1329" 
d="M809 1159q-70 0 -125 -29.5t-94 -85.5t-59.5 -136.5t-20.5 -182.5q0 -138 35 -232t106.5 -142t179.5 -48q98 0 188.5 27t182.5 65v-334q-97 -43 -198.5 -62t-215.5 -19q-238 0 -389.5 94.5t-223 262.5t-71.5 390q0 166 46.5 304t136.5 239.5t222.5 157t303.5 55.5
q106 0 223.5 -24.5t229.5 -78.5l-121 -311q-80 38 -162 64t-174 26z" />
    <glyph glyph-name="uni0422" unicode="&#x422;" horiz-adv-x="1210" 
d="M803 0h-395v1139h-357v323h1108v-323h-356v-1139z" />
    <glyph glyph-name="uni0423" unicode="&#x423;" horiz-adv-x="1395" 
d="M1419 1462l-444 -1026q-65 -151 -140 -252.5t-189.5 -152.5t-299.5 -51q-50 0 -121.5 7t-134.5 23v330q56 -22 121 -29.5t117 -7.5q55 0 89.5 17.5t54.5 44t30 51.5l-477 1046h426l180 -446q14 -34 33 -83.5t36.5 -100.5t26.5 -89h12q12 49 33 112t42 119t30 81l149 407
h426z" />
    <glyph glyph-name="uni0424" unicode="&#x424;" horiz-adv-x="1831" 
d="M1106 1483v-180q231 0 374 -76.5t209 -201.5t66 -269q0 -110 -35 -209t-112 -176t-201 -121.5t-301 -44.5v-225h-381v225q-180 0 -304 42.5t-200 118t-110.5 176t-34.5 216.5q0 103 33 200t108 175t200 124t308 46v180h381zM725 1001q-106 0 -163.5 -34.5t-79 -89.5
t-21.5 -119q0 -72 19.5 -129.5t76.5 -91t168 -33.5v497zM1106 1001v-497q108 0 165 33.5t78 91t21 129.5q0 66 -23.5 121t-81 88.5t-159.5 33.5z" />
    <glyph glyph-name="uni0425" unicode="&#x425;" horiz-adv-x="1481" 
d="M1475 0h-457l-285 457l-282 -457h-447l485 748l-456 714h438l264 -452l254 452h451l-463 -745z" />
    <glyph glyph-name="uni0426" unicode="&#x426;" horiz-adv-x="1702" 
d="M1665 324v-779h-385v455h-1122v1462h397v-1138h406v1138h397v-1138h307z" />
    <glyph glyph-name="uni0427" unicode="&#x427;" horiz-adv-x="1554" 
d="M1397 0h-398v541q-135 -46 -244.5 -67t-207.5 -21q-206 0 -323.5 102t-117.5 289v618h398v-487q0 -98 39.5 -148.5t140.5 -50.5q62 0 141 16.5t174 51.5v618h398v-1462z" />
    <glyph glyph-name="uni0428" unicode="&#x428;" horiz-adv-x="2228" 
d="M2071 0h-1913v1462h397v-1138h365v1138h389v-1138h364v1138h398v-1462z" />
    <glyph glyph-name="uni0429" unicode="&#x429;" horiz-adv-x="2415" 
d="M2378 324v-779h-385v455h-1835v1462h397v-1138h365v1138h389v-1138h364v1138h398v-1138h307z" />
    <glyph glyph-name="uni042A" unicode="&#x42a;" horiz-adv-x="1567" 
d="M410 0v1139h-359v323h754v-516h143q188 0 309.5 -57t180.5 -158.5t59 -234.5q0 -231 -156 -363.5t-434 -132.5h-497zM805 313h108q97 0 143 42.5t46 121.5q0 51 -23.5 85.5t-64.5 52.5t-92 18h-117v-320z" />
    <glyph glyph-name="uni042B" unicode="&#x42b;" horiz-adv-x="1890" 
d="M158 0v1462h395v-516h131q188 0 309.5 -57t180.5 -158.5t59 -234.5q0 -231 -156 -363.5t-434 -132.5h-485zM553 313h96q97 0 143 42.5t46 121.5q0 51 -24 85.5t-64.5 52.5t-92.5 18h-104v-320zM1335 0v1462h398v-1462h-398z" />
    <glyph glyph-name="uni042C" unicode="&#x42c;" horiz-adv-x="1315" 
d="M158 0v1462h395v-516h143q188 0 309.5 -57t180.5 -158.5t59 -234.5q0 -231 -156 -363.5t-434 -132.5h-497zM553 313h109q97 0 142.5 42.5t45.5 121.5q0 51 -23.5 85.5t-64.5 52.5t-92 18h-117v-320z" />
    <glyph glyph-name="uni042D" unicode="&#x42d;" horiz-adv-x="1372" 
d="M535 1155q-108 0 -189.5 -29t-163.5 -75l-112 313q90 44 217 80.5t272 36.5q181 0 314.5 -50t221 -143t130.5 -224.5t43 -295.5q0 -225 -77 -403.5t-236.5 -281.5t-407.5 -103q-129 0 -240 21.5t-198 53.5v340q107 -38 204 -62t215 -24q78 0 137.5 18t99.5 52.5
t62.5 84.5t26.5 114h-580v301h580q-10 72 -36 124t-67 86t-95 50t-121 16z" />
    <glyph glyph-name="uni042E" unicode="&#x42e;" horiz-adv-x="2204" 
d="M2097 733q0 -169 -38 -307.5t-117.5 -238.5t-205 -153.5t-300.5 -53.5q-205 0 -339.5 75.5t-206.5 214t-91 326.5h-244v-596h-397v1462h397v-542h250q24 174 98 301t206 195.5t329 68.5q233 0 378 -93t213 -262t68 -397zM1190 733q0 -132 25 -227t79 -146t142 -51
q90 0 144 51t77.5 146t23.5 227t-23.5 228t-77 148t-142.5 52q-90 0 -144.5 -52t-79 -148t-24.5 -228z" />
    <glyph glyph-name="uni042F" unicode="&#x42f;" horiz-adv-x="1391" 
d="M717 532l-289 -532h-448l401 639q-60 34 -112.5 87t-84.5 128.5t-32 175.5q0 214 149 323t447 109h485v-1462h-395v532h-121zM838 1163h-84q-82 0 -126 -23.5t-60.5 -58t-16.5 -69.5q0 -103 59 -143t154 -40h74v334z" />
    <glyph glyph-name="uni0430" unicode="&#x430;" horiz-adv-x="1276" 
d="M688 1153q215 0 336 -106.5t121 -303.5v-743h-271l-75 150h-8q-48 -60 -98.5 -97.5t-115.5 -55t-159 -17.5q-98 0 -176 40t-123 121t-45 205q0 182 126 270t365 99l189 6v16q0 76 -37.5 108t-100.5 32q-67 0 -149.5 -23.5t-165.5 -60.5l-113 258q98 50 222 76t278 26z
M756 506l-90 -4q-108 -4 -151.5 -37.5t-43.5 -95.5q0 -58 31 -85.5t82 -27.5q71 0 121.5 45t50.5 117v88z" />
    <glyph glyph-name="uni0431" unicode="&#x431;" horiz-adv-x="1335" 
d="M88 678q0 244 64.5 420.5t218.5 285t422 146.5q90 12 199 24t218 21l37 -324q-51 -4 -108.5 -9t-115.5 -11.5t-113 -12.5t-101 -12q-139 -16 -208.5 -56t-94.5 -104t-31 -153h17q19 37 60 75t103 63.5t144 25.5q126 0 226 -50t158 -157.5t58 -280.5q0 -195 -73.5 -326
t-204 -197t-301.5 -66q-131 0 -236.5 46t-181 135t-116 219t-40.5 298zM682 270q48 0 84.5 25t57 81.5t20.5 149.5q0 110 -32.5 181t-115.5 71q-47 0 -91.5 -25.5t-76.5 -58.5t-43 -57q0 -64 11 -129t34 -119t60.5 -86.5t91.5 -32.5z" />
    <glyph glyph-name="uni0432" unicode="&#x432;" horiz-adv-x="1288" 
d="M1184 840q0 -89 -53.5 -158.5t-163.5 -87.5v-8q121 -14 186.5 -83.5t65.5 -178.5q0 -85 -45.5 -159t-160.5 -119.5t-323 -45.5h-555v1133h557q171 0 279.5 -33.5t160.5 -99t52 -160.5zM821 362q0 44 -28.5 71.5t-110.5 27.5h-156v-205h152q77 0 110 29.5t33 76.5z
M795 788q0 44 -28 66.5t-81 22.5h-160v-170h146q62 0 92.5 23t30.5 58z" />
    <glyph glyph-name="uni0433" unicode="&#x433;" horiz-adv-x="1026" 
d="M977 1133v-291h-451v-842h-391v1133h842z" />
    <glyph glyph-name="uni0434" unicode="&#x434;" horiz-adv-x="1427" 
d="M1235 1133v-842h168v-707h-342v416h-694v-416h-342v707h100q59 101 105.5 235t78 289t45.5 318h881zM844 842h-189q-13 -97 -31 -186.5t-44.5 -178.5t-63.5 -186h328v551z" />
    <glyph glyph-name="uni0435" unicode="&#x435;" horiz-adv-x="1266" 
d="M645 1153q165 0 285 -57.5t185 -172.5t65 -288v-174h-699q5 -89 66.5 -146t181.5 -57q106 0 194.5 21t182.5 65v-281q-82 -43 -179 -63t-245 -20q-171 0 -306 61t-212.5 189t-77.5 329q0 204 70 335.5t196 195t293 63.5zM659 887q-69 0 -115.5 -43.5t-54.5 -136.5h336
q-1 50 -20 91t-55.5 65t-90.5 24z" />
    <glyph glyph-name="uni0436" unicode="&#x436;" horiz-adv-x="1987" 
d="M1956 1133l-383 -539l422 -594h-426l-385 575v-575h-381v575l-385 -575h-426l422 594l-383 539h420l352 -549v549h381v-549l352 549h420z" />
    <glyph glyph-name="uni0437" unicode="&#x437;" horiz-adv-x="1114" 
d="M502 1153q139 0 253 -30.5t181.5 -97.5t67.5 -179q0 -92 -56.5 -157.5t-148.5 -90.5v-10q90 -12 145.5 -50.5t81 -94t25.5 -121.5q0 -110 -60 -186.5t-185.5 -116t-322.5 -39.5q-103 0 -174.5 8t-126.5 22.5t-110 32.5v299q68 -23 165 -47.5t224 -24.5q87 0 129.5 16.5
t55.5 39.5t13 41q0 31 -15.5 51.5t-62 31.5t-141.5 11h-147v254h123q122 0 170.5 20.5t48.5 63.5q0 35 -35 55t-115 20q-81 0 -152.5 -18t-150.5 -53l-110 264q101 43 202 64.5t228 21.5z" />
    <glyph glyph-name="uni0438" unicode="&#x438;" horiz-adv-x="1466" 
d="M492 1133v-441q0 -35 -1.5 -72.5t-4 -74.5t-5 -72t-4.5 -65l428 725h426v-1133h-356v410q0 53 1.5 110t4.5 111t8 98l-432 -729h-422v1133h357z" />
    <glyph glyph-name="uni0439" unicode="&#x439;" horiz-adv-x="1466" 
d="M492 1133v-441q0 -35 -1.5 -72.5t-4 -74.5t-5 -72t-4.5 -65l428 725h426v-1133h-356v410q0 53 1.5 110t4.5 111t8 98l-432 -729h-422v1133h357zM1235 1622q-12 -112 -65 -198t-158 -134.5t-272 -48.5q-162 0 -267 42t-159 126.5t-64 212.5h326q6 -109 48 -147.5
t116 -38.5q66 0 111 40t53 146h331z" />
    <glyph glyph-name="uni043A" unicode="&#x43a;" horiz-adv-x="1384" 
d="M928 1133h432l-424 -543l457 -590h-447l-420 575v-575h-391v1133h391v-549z" />
    <glyph glyph-name="uni043B" unicode="&#x43b;" horiz-adv-x="1407" 
d="M1272 0h-391v842h-230q-21 -236 -51.5 -400.5t-81.5 -266.5t-129.5 -148.5t-195.5 -46.5q-46 0 -94.5 8.5t-82.5 21.5v291q20 -10 41.5 -14t46.5 -4t47 16t42.5 64t38.5 141.5t35 246.5t32 382h973v-1133z" />
    <glyph glyph-name="uni043C" unicode="&#x43c;" horiz-adv-x="1759" 
d="M1624 1133v-1133h-348v549q0 81 3 159t9 144h-6l-268 -852h-266l-269 854h-6q6 -67 9 -144t3 -169v-541h-348v1133h533l213 -687l217 687h524z" />
    <glyph glyph-name="uni043D" unicode="&#x43d;" horiz-adv-x="1362" 
d="M526 1133v-408h310v408h391v-1133h-391v434h-310v-434h-391v1133h391z" />
    <glyph glyph-name="uni043E" unicode="&#x43e;" horiz-adv-x="1305" 
d="M1217 569q0 -142 -39 -252t-113 -185t-179 -113.5t-237 -38.5q-123 0 -225.5 38.5t-178.5 113.5t-117.5 185t-41.5 252q0 188 68.5 318t196 198t304.5 68q163 0 290 -68t199.5 -198t72.5 -318zM483 569q0 -97 17 -163.5t54.5 -101t98.5 -34.5t97 34.5t52.5 101
t16.5 163.5t-16.5 162t-53 98t-98.5 33q-89 0 -128.5 -74t-39.5 -219z" />
    <glyph glyph-name="uni043F" unicode="&#x43f;" horiz-adv-x="1346" 
d="M1210 1133v-1133h-391v842h-293v-842h-391v1133h1075z" />
    <glyph glyph-name="uni0440" unicode="&#x440;" horiz-adv-x="1317" 
d="M827 1153q188 0 295 -150.5t107 -433.5q0 -193 -54 -324.5t-147.5 -198t-212.5 -66.5q-80 0 -135.5 20t-92 50t-61.5 61h-12q5 -39 8.5 -84t3.5 -105v-414h-391v1625h318l55 -144h18q28 44 68 81.5t97.5 60t135.5 22.5zM680 846q-57 0 -90 -27t-47.5 -81.5t-16.5 -135.5
v-31q0 -90 14 -151.5t48 -93t94 -31.5q49 0 82 28t50 89t17 161q0 149 -38.5 211t-112.5 62z" />
    <glyph glyph-name="uni0441" unicode="&#x441;" horiz-adv-x="1104" 
d="M651 -20q-172 0 -299 61.5t-196.5 190t-69.5 329.5q0 206 77.5 337t212.5 193t306 62q104 0 197.5 -23t173.5 -63l-115 -289q-70 31 -130.5 49.5t-125.5 18.5q-59 0 -104 -31t-70 -93.5t-25 -158.5q0 -98 25.5 -158t71 -87t104.5 -27q85 0 169.5 26.5t160.5 73.5v-311
q-70 -46 -158 -73t-205 -27z" />
    <glyph glyph-name="uni0442" unicode="&#x442;" horiz-adv-x="1235" 
d="M1186 842h-373v-842h-391v842h-373v291h1137v-291z" />
    <glyph glyph-name="uni0443" unicode="&#x443;" horiz-adv-x="1249" 
d="M-2 1133h412l192 -650q4 -14 8 -34.5t7 -43.5t4 -45h8q5 41 11.5 71.5t12.5 49.5l197 652h399l-448 -1205q-52 -138 -120.5 -231.5t-169 -141t-249.5 -47.5q-54 0 -92.5 5.5t-67.5 11.5v307q22 -4 54 -8t67 -4q65 0 105.5 26t66.5 68.5t45 91.5l4 10z" />
    <glyph glyph-name="uni0444" unicode="&#x444;" horiz-adv-x="1774" 
d="M1073 1556v-423q208 -18 344.5 -96t203.5 -199.5t67 -272.5q0 -149 -65 -270.5t-201 -198.5t-349 -96v-492h-366v492q-206 22 -344 100t-207.5 198t-69.5 267q0 156 62.5 279.5t198 199.5t355.5 89v423h371zM702 842q-60 -2 -112 -39.5t-84.5 -99.5t-32.5 -138
q0 -77 29.5 -138.5t81.5 -97.5t118 -38v551zM1073 842v-551q66 2 116.5 37.5t79.5 96.5t29 140q0 116 -65.5 195t-159.5 82z" />
    <glyph glyph-name="uni0445" unicode="&#x445;" horiz-adv-x="1290" 
d="M375 578l-346 555h444l172 -318l176 318h445l-355 -555l369 -578h-444l-191 344l-190 -344h-445z" />
    <glyph glyph-name="uni0446" unicode="&#x446;" horiz-adv-x="1559" 
d="M1534 -416h-342v416h-1057v1133h391v-842h363v842h391v-842h254v-707z" />
    <glyph glyph-name="uni0447" unicode="&#x447;" horiz-adv-x="1374" 
d="M477 1133v-398q0 -57 26 -87t81 -30q60 0 127.5 13.5t136.5 36.5v465h391v-1133h-391v412q-60 -26 -154 -55t-205 -29q-205 0 -304 94.5t-99 292.5v418h391z" />
    <glyph glyph-name="uni0448" unicode="&#x448;" horiz-adv-x="2056" 
d="M1921 1133v-1133h-1786v1133h391v-842h314v842h381v-842h309v842h391z" />
    <glyph glyph-name="uni0449" unicode="&#x449;" horiz-adv-x="2200" 
d="M1921 1133v-842h254v-707h-342v416h-1698v1133h391v-842h314v842h381v-842h309v842h391z" />
    <glyph glyph-name="uni044A" unicode="&#x44a;" horiz-adv-x="1460" 
d="M799 1133v-408h129q178 0 280 -41t144.5 -118.5t42.5 -188.5q0 -113 -47.5 -198t-159 -132t-305.5 -47h-475v842h-359v291h750zM860 469h-61v-213h65q73 0 106.5 26.5t33.5 75.5q0 53 -29 82t-115 29z" />
    <glyph glyph-name="uni044B" unicode="&#x44b;" horiz-adv-x="1774" 
d="M135 0v1133h391v-408h129q179 0 280.5 -41t144 -118.5t42.5 -188.5q0 -113 -47.5 -198t-159 -132t-305.5 -47h-475zM526 256h66q72 0 105.5 26.5t33.5 75.5q0 53 -28.5 82t-114.5 29h-62v-213zM1247 0v1133h391v-1133h-391z" />
    <glyph glyph-name="uni044C" unicode="&#x44c;" horiz-adv-x="1188" 
d="M526 725h129q179 0 280.5 -41t144 -118.5t42.5 -188.5q0 -113 -47.5 -198t-159 -132t-305.5 -47h-475v1133h391v-408zM731 358q0 53 -28.5 82t-114.5 29h-62v-213h66q72 0 105.5 26.5t33.5 75.5z" />
    <glyph glyph-name="uni044D" unicode="&#x44d;" horiz-adv-x="1108" 
d="M451 -20q-115 0 -207.5 17t-173.5 60v293q83 -40 170.5 -66t162.5 -26q53 0 103.5 17t84 57t34.5 108h-387v246h387q-3 94 -58.5 141t-134.5 47q-66 0 -140 -18.5t-130 -46.5l-111 252q76 35 185.5 63.5t244.5 28.5q163 0 284.5 -64t189 -190.5t67.5 -312.5
q0 -181 -61.5 -317.5t-187.5 -212.5t-322 -76z" />
    <glyph glyph-name="uni044E" unicode="&#x44e;" horiz-adv-x="1849" 
d="M1761 569q0 -189 -66.5 -320.5t-190 -200t-294.5 -68.5q-139 0 -250.5 52t-184.5 153.5t-97 248.5h-152v-434h-391v1133h391v-408h154q26 138 97 233.5t182.5 145t257.5 49.5q158 0 280.5 -68t193 -198t70.5 -318zM1065 569q0 -97 14.5 -163.5t47 -101t87.5 -34.5
t87.5 34.5t47.5 101t15 163.5t-15 162t-48 98t-89 33q-53 0 -85.5 -33t-47 -98t-14.5 -162z" />
    <glyph glyph-name="uni044F" unicode="&#x44f;" horiz-adv-x="1247" 
d="M389 0h-414l291 430q-52 29 -95 75.5t-69 112.5t-26 152q0 180 133 271.5t362 91.5h541v-1133h-391v393h-115zM467 758q0 -42 31 -75.5t112 -33.5h111v228h-113q-75 0 -108 -35t-33 -84z" />
    <glyph glyph-name="uni0450" unicode="&#x450;" horiz-adv-x="1266" 
d="M645 1153q165 0 285 -57.5t185 -172.5t65 -288v-174h-699q5 -89 66.5 -146t181.5 -57q106 0 194.5 21t182.5 65v-281q-82 -43 -179 -63t-245 -20q-171 0 -306 61t-212.5 189t-77.5 329q0 204 70 335.5t196 195t293 63.5zM659 887q-69 0 -115.5 -43.5t-54.5 -136.5h336
q-1 50 -20 91t-55.5 65t-90.5 24zM631 1569q35 -46 83.5 -101t97 -107.5t81.5 -90.5v-29h-260q-42 26 -100 66t-121 84.5t-118.5 86t-92.5 70.5v21h430z" />
    <glyph glyph-name="uni0451" unicode="&#x451;" horiz-adv-x="1266" 
d="M645 1153q165 0 285 -57.5t185 -172.5t65 -288v-174h-699q5 -89 66.5 -146t181.5 -57q106 0 194.5 21t182.5 65v-281q-82 -43 -179 -63t-245 -20q-171 0 -306 61t-212.5 189t-77.5 329q0 204 70 335.5t196 195t293 63.5zM659 887q-69 0 -115.5 -43.5t-54.5 -136.5h336
q-1 50 -20 91t-55.5 65t-90.5 24zM221 1413q0 82 49 120t121 38q69 0 120.5 -38t51.5 -120q0 -79 -51.5 -117.5t-120.5 -38.5q-72 0 -121 38.5t-49 117.5zM700 1413q0 82 49.5 120t122.5 38q70 0 121.5 -38t51.5 -120q0 -79 -51.5 -117.5t-121.5 -38.5q-73 0 -122.5 38.5
t-49.5 117.5z" />
    <glyph glyph-name="uni0452" unicode="&#x452;" horiz-adv-x="1393" 
d="M844 -492q-48 0 -112 7.5t-105 17.5v303q34 -9 60.5 -12.5t62.5 -3.5q47 0 82.5 33.5t35.5 136.5v528q0 113 -33 170t-102 57q-70 0 -111 -40.5t-58 -118.5t-17 -191v-395h-391v1167h-156v242h156v147h391v-147h233v-242h-233v-41q0 -47 -6 -116.5t-11 -116.5h23
q37 58 82.5 93t102 51t124.5 16q113 0 203.5 -43.5t143.5 -134.5t53 -236v-731q0 -102 -40 -193.5t-131.5 -149t-246.5 -57.5z" />
    <glyph glyph-name="uni0453" unicode="&#x453;" horiz-adv-x="1026" 
d="M977 1133v-291h-451v-842h-391v1133h842zM1036 1569v-21q-36 -29 -92 -70.5t-118.5 -86t-121 -84.5t-100.5 -66h-260v29q35 38 84 90.5t98 107.5t82 101h428z" />
    <glyph glyph-name="uni0454" unicode="&#x454;" horiz-adv-x="1110" 
d="M655 -20q-176 0 -303.5 60t-196.5 188t-69 331q0 213 74 344t204.5 190.5t301.5 59.5q100 0 198 -21.5t195 -62.5l-113 -264q-76 35 -150 52t-137 17q-47 0 -85.5 -20t-62.5 -61.5t-30 -106.5h371v-246h-369q6 -64 32 -104.5t69 -59t98 -18.5q83 0 165 22.5t177 69.5
v-287q-82 -43 -170.5 -63t-198.5 -20z" />
    <glyph glyph-name="uni0455" unicode="&#x455;" horiz-adv-x="1059" 
d="M977 348q0 -108 -48 -191t-153.5 -130t-277.5 -47q-121 0 -216.5 13t-193.5 50v313q107 -49 218 -70.5t175 -21.5q66 0 96.5 14.5t30.5 43.5q0 25 -20.5 42.5t-73 40.5t-147.5 62q-94 39 -156.5 85t-93.5 110t-31 157q0 166 128 250t339 84q112 0 211 -24.5t205 -71.5
l-107 -252q-84 38 -170 61t-137 23q-46 0 -71 -12t-25 -35q0 -21 17.5 -37t66.5 -37t143 -59q99 -40 163.5 -85.5t96 -110.5t31.5 -165z" />
    <glyph glyph-name="uni0456" unicode="&#x456;" horiz-adv-x="666" 
d="M528 1133v-1133h-391v1133h391zM334 1589q84 0 146.5 -35t62.5 -139q0 -101 -62.5 -136.5t-146.5 -35.5q-86 0 -146.5 35.5t-60.5 136.5q0 104 60.5 139t146.5 35z" />
    <glyph glyph-name="uni0457" unicode="&#x457;" horiz-adv-x="666" 
d="M528 0h-391v1133h391v-1133zM-78 1413q0 82 49 120t121 38q69 0 120.5 -38t51.5 -120q0 -79 -51.5 -117.5t-120.5 -38.5q-72 0 -121 38.5t-49 117.5zM401 1413q0 82 49.5 120t122.5 38q70 0 121.5 -38t51.5 -120q0 -79 -51.5 -117.5t-121.5 -38.5q-73 0 -122.5 38.5
t-49.5 117.5z" />
    <glyph glyph-name="uni0458" unicode="&#x458;" horiz-adv-x="664" 
d="M106 -492q-47 0 -108.5 7.5t-101.5 17.5v305q32 -9 59 -13.5t61 -4.5q48 0 83.5 33.5t35.5 136.5v1143h391v-1225q0 -102 -40 -193.5t-132 -149t-248 -57.5zM125 1415q0 104 60.5 139t146.5 35q84 0 146.5 -35t62.5 -139q0 -101 -62.5 -136.5t-146.5 -35.5
q-86 0 -146.5 35.5t-60.5 136.5z" />
    <glyph glyph-name="uni0459" unicode="&#x459;" horiz-adv-x="1903" 
d="M1241 1133v-408h37q209 0 331.5 -39.5t175 -117t52.5 -193.5q0 -114 -47.5 -198t-159 -130.5t-305.5 -46.5h-475v842h-199q-21 -236 -51.5 -400.5t-81.5 -266.5t-129.5 -148.5t-195.5 -46.5q-46 0 -94.5 8.5t-82.5 21.5v291q20 -10 41.5 -14t46.5 -4t47 16t42.5 64
t38.5 141.5t35 246.5t32 382h942zM1303 469h-62v-213h66q72 0 105.5 26.5t33.5 75.5q0 53 -28.5 82t-114.5 29z" />
    <glyph glyph-name="uni045A" unicode="&#x45a;" horiz-adv-x="1829" 
d="M1167 1133v-408h37q209 0 331.5 -39.5t175 -117t52.5 -193.5q0 -114 -47.5 -198t-159 -130.5t-305.5 -46.5h-475v434h-250v-434h-391v1133h391v-408h250v408h391zM1229 469h-62v-213h66q72 0 105.5 26.5t33.5 75.5q0 53 -28.5 82t-114.5 29z" />
    <glyph glyph-name="uni045B" unicode="&#x45b;" horiz-adv-x="1393" 
d="M547 1556v-147h233v-242h-235v-41q0 -47 -5 -116.5t-10 -116.5h23q37 58 82.5 93t102 51t124.5 16q113 0 203.5 -43.5t143.5 -134.5t53 -236v-639h-394v518q0 113 -33 170t-102 57q-70 0 -111 -40.5t-58 -118.5t-17 -191v-395h-391v1167h-156v242h156v147h391z" />
    <glyph glyph-name="uni045C" unicode="&#x45c;" horiz-adv-x="1384" 
d="M928 1133h432l-424 -543l457 -590h-447l-420 575v-575h-391v1133h391v-549zM1214 1569v-21q-36 -29 -92 -70.5t-118.5 -86t-121 -84.5t-100.5 -66h-260v29q35 38 84 90.5t98 107.5t82 101h428z" />
    <glyph glyph-name="uni045D" unicode="&#x45d;" horiz-adv-x="1466" 
d="M492 1133v-441q0 -35 -1.5 -72.5t-4 -74.5t-5 -72t-4.5 -65l428 725h426v-1133h-356v410q0 53 1.5 110t4.5 111t8 98l-432 -729h-422v1133h357zM737 1569q35 -46 83.5 -101t97 -107.5t81.5 -90.5v-29h-260q-42 26 -100 66t-121 84.5t-118.5 86t-92.5 70.5v21h430z" />
    <glyph glyph-name="uni045E" unicode="&#x45e;" horiz-adv-x="1249" 
d="M-2 1133h412l192 -650q4 -14 8 -34.5t7 -43.5t4 -45h8q5 41 11.5 71.5t12.5 49.5l197 652h399l-448 -1205q-52 -138 -120.5 -231.5t-169 -141t-249.5 -47.5q-54 0 -92.5 5.5t-67.5 11.5v307q22 -4 54 -8t67 -4q65 0 105.5 26t66.5 68.5t45 91.5l4 10zM1120 1622
q-12 -112 -65 -198t-158 -134.5t-272 -48.5q-162 0 -267 42t-159 126.5t-64 212.5h326q6 -109 48 -147.5t116 -38.5q66 0 111 40t53 146h331z" />
    <glyph glyph-name="uni045F" unicode="&#x45f;" horiz-adv-x="1411" 
d="M535 0h-400v1133h391v-842h359v842h391v-1133h-399v-416h-342v416z" />
    <glyph glyph-name="uni0460" unicode="&#x460;" horiz-adv-x="2005" 
d="M455 0q-91 131 -167 303t-132.5 367t-87.5 397.5t-31 394.5h387q7 -169 24 -324.5t43.5 -293t60.5 -255t75 -212.5h10q17 75 38.5 150t43.5 145l112 377q-11 61 -21 130.5t-17 142.5t-9 142h390q3 -141 18.5 -286t43.5 -287.5t70 -276.5t97 -254h10q60 151 97.5 315.5
t55 357.5t15.5 429h387q0 -297 -41.5 -554t-129.5 -482t-228 -426h-338q-30 48 -66 119.5t-72 153t-65.5 162t-46.5 147.5l-164 -582h-362z" />
    <glyph glyph-name="uni0461" unicode="&#x461;" horiz-adv-x="1837" 
d="M1794 1133q-7 -207 -40.5 -390.5t-108.5 -363.5t-205 -379h-353q-26 50 -58.5 118t-64.5 143t-59 145l-160 -406h-360q-67 101 -132 233.5t-116.5 284t-79.5 309t-22 306.5h371q4 -174 30 -326t64.5 -278t81.5 -224h6q12 33 25 65.5t27 65t28 64.5l110 243
q-18 83 -28 182t-9 208h365q-4 -135 14.5 -281t57 -284.5t92.5 -252.5h8q44 111 76.5 236t50 269t16.5 313h373z" />
    <glyph glyph-name="uni0462" unicode="&#x462;" horiz-adv-x="1368" 
d="M211 0v1061h-219v256h219v145h395v-145h389v-256h-389v-152h144q187 0 308.5 -56.5t180.5 -154t59 -221.5q0 -217 -155.5 -347t-433.5 -130h-498zM606 313h109q97 0 142.5 40t45.5 106q0 41 -23.5 72t-64.5 48t-92 17h-117v-283z" />
    <glyph glyph-name="uni0463" unicode="&#x463;" horiz-adv-x="1405" 
d="M641 1360v-227h377v-256h-377v-160h139q289 0 424 -86.5t135 -259.5q0 -114 -52.5 -197t-169 -128.5t-310.5 -45.5h-557v877h-250v256h250v227h391zM784 461h-143v-205h147q73 0 116.5 24.5t43.5 73.5q0 53 -39 80t-125 27z" />
    <glyph glyph-name="uni0464" unicode="&#x464;" horiz-adv-x="1962" 
d="M1473 -20q-219 0 -367.5 73t-230.5 207.5t-105 317.5h-215v-578h-397v1462h397v-583h217q19 134 74 244t145 190.5t215 124t285 43.5q146 0 265 -34t210 -75l-127 -321q-81 46 -159 75t-185 29q-67 0 -121.5 -16t-95 -50t-66.5 -86t-36 -124h579v-301h-579
q5 -64 26.5 -114t62 -84.5t99.5 -52.5t137 -18q119 0 216 24t204 62v-327q-88 -39 -203.5 -63.5t-244.5 -24.5z" />
    <glyph glyph-name="uni0465" unicode="&#x465;" horiz-adv-x="1724" 
d="M1284 -20q-166 0 -289 47t-197.5 147.5t-95.5 259.5h-176v-434h-391v1133h391v-416h181q25 157 98.5 252.5t192.5 139.5t278 44q100 0 198 -21.5t195 -62.5l-113 -264q-76 35 -149.5 52t-136.5 17q-56 0 -92 -18t-56 -53t-28 -86h368v-283h-368q5 -64 28 -103t62.5 -56
t91.5 -17q88 0 171.5 22.5t178.5 69.5v-287q-81 -43 -164 -63t-178 -20z" />
    <glyph glyph-name="uni0466" unicode="&#x466;" horiz-adv-x="1733" 
d="M1096 1462l647 -1462h-406l-215 555h-82v-555h-348v555h-82l-213 -555h-407l641 1462h465zM864 1217q-5 -22 -13.5 -48.5t-18.5 -55.5t-20.5 -57t-20.5 -52l-62 -158h272l-63 160q-10 24 -20.5 52t-20.5 56t-18.5 54.5t-14.5 48.5z" />
    <glyph glyph-name="uni0467" unicode="&#x467;" horiz-adv-x="1434" 
d="M930 1133l520 -1133h-377l-137 373h-62v-373h-313v373h-61l-140 -373h-376l514 1133h432zM721 922h-6q-9 -31 -22 -69t-27 -75t-27 -67l-33 -80h228l-33 76q-15 35 -30 73t-28 75t-22 67z" />
    <glyph glyph-name="uni0468" unicode="&#x468;" horiz-adv-x="2380" 
d="M1745 1462l647 -1462h-405l-215 555h-82v-555h-349v555h-81l-213 -555h-408l260 596h-344v-596h-397v1462h397v-542h487l238 542h465zM1516 1217q-6 -22 -14.5 -48.5t-18.5 -55.5t-20.5 -57t-20.5 -52l-62 -158h273l-64 160q-10 24 -20 52l-20 56t-18.5 54.5t-14.5 48.5z
" />
    <glyph glyph-name="uni0469" unicode="&#x469;" horiz-adv-x="2048" 
d="M1542 1133l520 -1133h-376l-138 373h-61v-373h-313v373h-62l-139 -373h-377l197 434h-287v-434h-371v1133h371v-408h418l186 408h432zM1331 922h-6q-9 -31 -22 -69t-27 -75t-27 -67l-32 -80h227l-33 76q-15 35 -30 73t-27.5 75t-22.5 67z" />
    <glyph glyph-name="uni046A" unicode="&#x46a;" horiz-adv-x="1757" 
d="M1571 1462v-174l-348 -432q89 -25 153 -66.5t115.5 -120t103.5 -216.5l172 -453h-401l-123 340q-32 92 -59.5 152t-56 90.5t-64.5 33.5v-616h-369v616q-36 -1 -64.5 -31.5t-55.5 -91.5t-60 -153l-123 -340h-401l172 453q41 108 77.5 178t76 112.5t90 68t120.5 44.5
l-340 432v174h1385zM1071 1171h-389l192 -294z" />
    <glyph glyph-name="uni046B" unicode="&#x46b;" horiz-adv-x="1462" 
d="M1311 1133v-150l-271 -334q77 -18 135 -55.5t100 -97t71 -144.5l116 -352h-375l-83 307q-14 50 -32.5 79.5t-39 43.5t-43.5 16v-446h-316v446q-19 0 -39 -12t-39 -41.5t-36 -83.5l-84 -309h-375l109 352q28 88 72 149.5t105 98.5t138 51l-281 332v150h1168zM885 883h-316
l158 -207z" />
    <glyph glyph-name="uni046C" unicode="&#x46c;" horiz-adv-x="2402" 
d="M2216 1462v-174l-348 -432q89 -25 153 -66.5t116 -120t104 -216.5l172 -453h-402l-123 340q-32 92 -59.5 152t-56 90.5t-64.5 33.5v-616h-369v616q-36 -1 -64.5 -31.5t-55.5 -91.5t-60 -153l-123 -340h-401l172 453q15 41 30.5 76.5t28.5 66.5h-311v-596h-397v1462h397
v-542h565l-289 368v174h1385zM1716 1171h-389l193 -294z" />
    <glyph glyph-name="uni046D" unicode="&#x46d;" horiz-adv-x="2077" 
d="M1925 1133v-150l-270 -334q77 -18 134.5 -55.5t100 -97t70.5 -144.5l117 -352h-375l-84 307q-14 50 -32.5 79.5t-39 43.5t-43.5 16v-446h-315v446q-19 0 -39.5 -12t-39.5 -41.5t-36 -83.5l-84 -309h-375l109 352q6 22 14.5 42.5t18.5 39.5h-250v-434h-371v1133h371v-408
h469l-217 258v150h1167zM1499 883h-315l157 -207z" />
    <glyph glyph-name="uni046E" unicode="&#x46e;" horiz-adv-x="1364" 
d="M1049 1794q58 0 92 -5.5t47 -10.5v-187q-10 5 -33 9t-49 4q-51 0 -95.5 -39.5t-90.5 -114.5q138 -41 215 -127.5t77 -202.5q0 -145 -88.5 -232t-255.5 -116v-8q203 -17 301.5 -108.5t98.5 -237.5q0 -96 -37.5 -175t-112 -137t-186.5 -90.5t-262 -35.5q-88 -2 -137.5 -11
t-70 -26.5t-20.5 -46.5q0 -34 29 -49t98 -15q67 0 128 2.5t112 5t88 2.5q66 0 113.5 -12t62.5 -31v-282q-19 18 -70 26t-114 8q-77 0 -142 -2t-133 -4t-155 -2q-140 0 -232 50t-137 132t-45 177q0 110 44.5 200t155 144.5t306.5 56.5q170 2 240.5 37t70.5 115
q0 74 -84.5 110.5t-251.5 36.5h-172v320h154q126 0 192.5 14t90.5 42t24 71q0 52 -48.5 81t-162.5 29q-91 0 -180.5 -24.5t-169.5 -77.5l-166 272q88 56 176.5 90t200.5 49q-34 43 -77 93t-83 94t-67 69v27h262q44 -34 96 -83t102 -112q67 91 117.5 142.5t104 73.5t129.5 22
z" />
    <glyph glyph-name="uni046F" unicode="&#x46f;" horiz-adv-x="1135" 
d="M897 1395q59 0 91.5 -7t47.5 -12v-176q-12 5 -41 9.5t-61 4.5q-37 0 -73 -28.5t-64 -69.5q103 -32 165 -98t62 -172q0 -92 -56.5 -157.5t-148.5 -90.5v-10q90 -12 145.5 -50.5t81 -94t25.5 -121.5q0 -110 -50.5 -183.5t-164.5 -112.5t-305 -46q-70 -3 -111.5 -12.5
t-59.5 -26t-18 -43.5q0 -43 36 -58.5t96 -15.5q53 0 100 2.5t92.5 5t93.5 2.5q65 0 104 -12t64 -31v-283q-18 19 -64.5 31t-92.5 12q-62 0 -112.5 -2.5t-100.5 -5t-113 -2.5q-167 0 -270 46t-150 127t-47 184q0 119 55 197t157 118t241 45q99 3 148 22.5t65 44t16 42.5
q0 31 -15.5 51.5t-62.5 31.5t-141 11h-148v254h123q122 0 170.5 20.5t48.5 63.5q0 35 -34.5 55t-114.5 20q-82 0 -153.5 -18t-149.5 -53l-111 264q45 19 88.5 34t87.5 25q-28 35 -60 73t-60.5 71.5t-49.5 54.5v27h244q40 -31 95.5 -80.5t109.5 -114.5q67 89 119 141
t106 74.5t125 22.5z" />
    <glyph glyph-name="uni0470" unicode="&#x470;" horiz-adv-x="1905" 
d="M1792 1462v-477q0 -154 -34.5 -264t-111 -180t-200.5 -104.5t-303 -39.5v-397h-381v397q-179 5 -303 36t-200.5 96t-111 170.5t-34.5 258.5v504h389v-499q0 -92 27 -144.5t84.5 -74t148.5 -21.5v739h381v-739q81 0 139.5 23t89.5 74.5t31 137.5v504h389z" />
    <glyph glyph-name="uni0471" unicode="&#x471;" horiz-adv-x="1831" 
d="M1108 1554v-1263q81 8 135.5 35t81.5 87t27 167q0 132 -23 270t-67 283h376q51 -155 73 -289.5t22 -270.5q0 -209 -83.5 -335.5t-225 -185.5t-316.5 -68v-476h-371v476q-179 6 -315.5 63t-213.5 180.5t-77 329.5v576h381v-586q0 -97 27 -150.5t77.5 -76.5t120.5 -29v1263
h371z" />
    <glyph glyph-name="uni0472" unicode="&#x472;" horiz-adv-x="1632" 
d="M1526 733q0 -169 -40.5 -307.5t-126.5 -238.5t-221 -153.5t-323 -53.5q-184 0 -318.5 53.5t-221.5 153t-129 238.5t-42 310q0 228 75.5 396.5t233.5 261t404 92.5q250 0 406.5 -93t229.5 -262t73 -397zM815 289q109 0 178 37t105.5 106t44.5 164h-656q9 -95 46.5 -164
t107.5 -106t174 -37zM817 1182q-100 0 -167.5 -34.5t-105.5 -100.5t-50 -160h643q-17 141 -92.5 218t-227.5 77z" />
    <glyph glyph-name="uni0473" unicode="&#x473;" horiz-adv-x="1305" 
d="M1217 569q0 -189 -68.5 -320.5t-196 -200t-303.5 -68.5q-163 0 -290.5 68.5t-200 200t-72.5 320.5q0 281 152 432.5t417 151.5q163 0 290 -68t199.5 -198t72.5 -318zM653 254q60 0 101.5 22.5t64.5 66.5t27 108h-389q6 -64 29.5 -108t65 -66.5t101.5 -22.5zM651 879
q-91 0 -139.5 -53t-54.5 -154h391q-4 68 -27 114t-65 69.5t-105 23.5z" />
    <glyph glyph-name="uni0474" unicode="&#x474;" horiz-adv-x="1530" 
d="M1405 1159q-33 0 -56 -12t-40.5 -42t-34.5 -83l-311 -1022h-465l-498 1462h444l215 -768q12 -42 25.5 -104.5t24.5 -124.5t14 -103q3 31 11 73.5t18.5 89.5t21 90.5t19.5 74.5l92 395q32 133 76 221t119 132.5t198 44.5q68 0 132 -14t95 -29v-301q-15 8 -43.5 14t-56.5 6
z" />
    <glyph glyph-name="uni0475" unicode="&#x475;" horiz-adv-x="1305" 
d="M1108 1153q12 0 69 -5.5t107 -27.5v-284q-26 9 -45.5 11.5t-36.5 2.5q-27 0 -46 -9.5t-33 -30.5t-27 -56l-277 -754h-387l-432 1133h408l192 -670q3 -9 9.5 -46t6.5 -69h9q0 34 7 65t11 48l113 350q42 127 84.5 202t105 107.5t162.5 32.5z" />
    <glyph glyph-name="uni0476" unicode="&#x476;" horiz-adv-x="1530" 
d="M1405 1159q-33 0 -56 -12t-40.5 -42t-34.5 -83l-311 -1022h-465l-498 1462h444l215 -768q12 -42 25.5 -104.5t24.5 -124.5t14 -103q3 31 11 73.5t18.5 89.5t21 90.5t19.5 74.5l92 395q32 133 76 221t119 132.5t198 44.5q68 0 132 -14t95 -29v-301q-15 8 -43.5 14t-56.5 6
zM887 1899q22 -46 51.5 -100.5t62 -107t60.5 -91.5v-29h-203q-34 27 -81 68t-94 86t-84.5 85.5t-53.5 67.5v21h342zM465 1899q22 -46 51 -100.5t61 -107t60 -91.5v-29h-203q-34 27 -80.5 68t-93.5 86t-84 85.5t-53 67.5v21h342z" />
    <glyph glyph-name="uni0477" unicode="&#x477;" horiz-adv-x="1305" 
d="M1108 1153q12 0 69 -5.5t107 -27.5v-284q-26 9 -45.5 11.5t-36.5 2.5q-27 0 -46 -9.5t-33 -30.5t-27 -56l-277 -754h-387l-432 1133h408l192 -670q3 -9 9.5 -46t6.5 -69h9q0 34 7 65t11 48l113 350q42 127 84.5 202t105 107.5t162.5 32.5zM803 1569q22 -46 51.5 -100.5
t62 -107t60.5 -91.5v-29h-203q-34 27 -81 68t-94 86t-84.5 85.5t-53.5 67.5v21h342zM381 1569q22 -46 51 -100.5t61 -107t60 -91.5v-29h-203q-34 27 -80.5 68t-93.5 86t-84 85.5t-53 67.5v21h342z" />
    </font>
</defs>
</svg>
